Правила форума

  • В этом разделе создание новых тем Запрещено.
  • Для создания новых тем пользуйтесь Корневым разделом DVD и HD фильмы.
Начать новую темуОтветить на тему  [ Сообщений: 5 ] 
Торрент файл
Размер: 25.73 GB • Зарегистрирован: 4 года • Статус: Проверено
Скачан: 44 раза • Желающих скачать: 0 • Поблагодарили: 15 раз
 Раздают: 0  |  0 KB/s  ]   Качают: 0  |  0 KB/s  ] 
 Полного источника не было 3 года 2 месяца 
Сообщения
 Добавлено: 2012-11-24 11:51
Руководитель релиз-группы
Аватара пользователя
Стаж: 7 лет 4 месяца
Возраст: 31
Сообщений: 3407
Спасибок: 46729
Лайков: 5
Изображение

Патруль
End of Watch


Год выпуска: 2012
Страна: США
Слоган: «Где правит адреналин, нет места для страха»
Жанр: триллер, драма, криминал
Продолжительность: 01:48:32
Перевод: Профессиональный (полное дублирование)
Режиссер: Дэвид Эйр
Сценарий: Дэвид Эйр
Продюсер: Мэтт Джексон, Джон Лешер, Дэвид Эйр, Тобин Армруст, Адам Кассан
Оператор: Роман Васьянов
Композитор: Дэвид Сарди
В ролях: Джейк Джилленхол, Майкл Пенья, Анна Кендрик, Натали Мартинез, Америка Феррера, Фрэнк Грилло, Дэвид Харбор, Кле Шахид Слоун, Джейм Фицсаймонс, Коуди Хорн, Шондрелла Эйвери, Эвертон Лоуренс
Бюджет: $7 000 000
Сборы в США: $39 169 411
Сборы в России: $1 483 728
Сборы в мире: $40 020 506
Описание: Они были лучшими копами Лос-Анджелеса. Бесстрашные и везучие напарники, они стали друг другу как братья. Но однажды парни залезли в самое логово преступного мира города, по-глупому подставились и сами стали мишенью... Кто успеет первым разрядить обойму?
Изображение
MPAA: Изображение
Мировая премьера: 8 сентября 2012
Релиз на DVD: 20 ноября 2012, «Парадиз Медиа»
Релиз на Blu-ray: 20 ноября 2012, «Парадиз Медиа»
Раздача группы: Изображение
Качество: BD-Remux, 1080p
Формат: Matroska
Видео: MPEG-4 AVC, 30.0 Мбит/с, 1920x1080, 24.000 кадр/с
Аудио №1: DTS-HD; VBR; 6 ch; 16 bit, 2227 Кбит/с Russian
Аудио №2: AC3; 640 Kbps; CBR; 6 ch Russian
Аудио №3: DTS-HD; VBR; 6 ch; 16 bit, 2138 Кбит/с English
Субтитры: русские, английские
Примечание: к релизу SCHUMAHERа добавлена русская AC3 дорожка
mediainfo
Формат : Matroska
Версия формата : Version 2
Размер файла : 25,7 Гбайт
Продолжительность : 1 ч. 48 м.
Режим общего битрейта : Переменный
Общий поток : 33,9 Мбит/сек
Название фильма : --SCHUMAHER--
Дата кодирования : UTC 2012-11-24 07:38:07
Программа кодирования : mkvmerge v3.2.0 ('Beginnings') built on Feb 12 2010 16:46:17
Библиотека кодирования : libebml v0.7.9 + libmatroska v0.8.1

Видео
Идентификатор : 1
Формат : AVC
Формат/Информация : Advanced Video Codec
Профиль формата : High@L4.1
Параметр CABAC формата : Да
Параметр ReFrames формата : 4 кадра
Идентификатор кодека : V_MPEG4/ISO/AVC
Продолжительность : 1 ч. 48 м.
Вид битрейта : Постоянный
Битрейт : 30,0 Мбит/сек
Ширина : 1920 пикселей
Высота : 1080 пикселей
Соотношение сторон : 16:9
Частота кадров : 24,000 кадра/сек
Стандарт вещания : NTSC
Цветовое пространство : YUV
Субдискретизация насыщенности : 4:2:0
Битовая глубина : 8 бит
Тип развёртки : Прогрессивная
Бит/(Пиксели*Кадры) : 0.603
Размер потока : 21,9 Гбайт (85%)
Язык : English
Основные цвета : BT.709-5, BT.1361, IEC 61966-2-4, SMPTE RP177
Характеристики трансфера : BT.709-5, BT.1361
Коэффициенты матрицы : BT.709-5, BT.1361, IEC 61966-2-4 709, SMPTE RP177

Аудио #1
Идентификатор : 2
Формат : DTS
Формат/Информация : Digital Theater Systems
Профиль формата : MA / Core
Идентификатор кодека : A_DTS
Продолжительность : 1 ч. 48 м.
Вид битрейта : Переменный
Битрейт : 2023 Кбит/сек / 1510 Кбит/сек
Каналы : 6 каналов
Расположение каналов : Front: L C R, Side: L R, LFE
Частота : 48,0 КГц
Битовая глубина : 16 бит
Метод сжатия : Без потерь / Lossy
Язык : Russian

Аудио #2
Идентификатор : 3
Формат : AC-3
Формат/Информация : Audio Coding 3
Расширение режима : CM (complete main)
Идентификатор кодека : A_AC3
Продолжительность : 1 ч. 48 м.
Вид битрейта : Постоянный
Битрейт : 640 Кбит/сек
Каналы : 6 каналов
Расположение каналов : Front: L C R, Side: L R, LFE
Частота : 48,0 КГц
Битовая глубина : 16 бит
Метод сжатия : С потерями
Размер потока : 497 Мбайт (2%)
Заголовок : AC3
Язык : Russian

Аудио #3
Идентификатор : 4
Формат : DTS
Формат/Информация : Digital Theater Systems
Профиль формата : MA / Core
Идентификатор кодека : A_DTS
Продолжительность : 1 ч. 48 м.
Вид битрейта : Переменный
Битрейт : 1741 Кбит/сек / 1510 Кбит/сек
Каналы : 6 каналов
Расположение каналов : Front: L C R, Side: L R, LFE
Частота : 48,0 КГц
Битовая глубина : 16 бит
Метод сжатия : Без потерь / Lossy
Язык : English

Текст #1
Идентификатор : 5
Формат : UTF-8
Идентификатор кодека : S_TEXT/UTF8
Идентификатор кодека/Информация : UTF-8 Plain Text
Язык : Russian

Текст #2
Идентификатор : 6
Формат : UTF-8
Идентификатор кодека : S_TEXT/UTF8
Идентификатор кодека/Информация : UTF-8 Plain Text
Язык : English

Меню
00:00:00.000 : en:Chapter 1
00:03:15.041 : en:Chapter 2
00:10:19.750 : en:Chapter 3
00:16:57.333 : en:Chapter 4
00:24:11.708 : en:Chapter 5
00:31:45.125 : en:Chapter 6
00:35:55.291 : en:Chapter 7
00:42:17.625 : en:Chapter 8
00:49:03.583 : en:Chapter 9
00:55:37.791 : en:Chapter 10
00:59:27.750 : en:Chapter 11
01:04:02.625 : en:Chapter 12
01:11:00.958 : en:Chapter 13
01:17:28.875 : en:Chapter 14
01:23:02.875 : en:Chapter 15
01:30:03.041 : en:Chapter 16
01:35:19.250 : en:Chapter 17
01:39:05.833 : en:Chapter 18

Свернуть
Скриншоты

Изображение

Изображение

Изображение

Изображение
Свернуть
Не в сети
Профиль  
 Добавлено: 2012-11-24 14:45 (спустя 2 часа 54 минуты)
Модератор
Аватара пользователя
Стаж: 6 лет 10 месяцев
Возраст: 33
Сообщений: 5908
Спасибок: 61253
Лайков: 3540
:dan_ser: рип от Шумахера?
_________________
ИзображениеИзображение Изображение
Изображение
Не в сети
Профиль  
 Добавлено: 2012-11-24 15:16 (спустя 31 минута)
Руководитель релиз-группы
Аватара пользователя
Стаж: 7 лет 4 месяца
Возраст: 31
Сообщений: 3407
Спасибок: 46729
Лайков: 5
rotametr
:a_g_a:
добавил русский звук в AC3, для тех у кого телек DTS не читает
Не в сети
Профиль  
 Добавлено: 2012-11-25 12:46 (спустя 21 час)
Top-seeder
Аватара пользователя
Стаж: 8 лет 11 месяцев
Возраст: 29
Сообщений: 247
Спасибок: 123
Зачем вообще снимать подобное кино...ну, да, тут действительно драматизм серьезный, поэтому, наверно, и оценка высокая. Но никакой драматизм не изменит реальности - фильм очень и очень скучный.
Не в сети
Профиль  
 Добавлено: 2012-12-07 13:30 (спустя 12 дней)
Аватара пользователя
Стаж: 8 лет 10 месяцев
Сообщений: 19
Хороший фильм 10 из 10, автору спасибо!!!
Не в сети
Профиль  
Начать новую темуОтветить на тему  [ Сообщений: 5 ] 
Вы не можете начинать темы
Вы не можете отвечать на сообщения
Вы не можете редактировать свои сообщения
Вы не можете удалять свои сообщения