Правила форума

  • В этом разделе создание новых тем Запрещено.
  • Для создания новых тем пользуйтесь Корневым разделом DVD и HD фильмы.
Начать новую темуОтветить на тему  [ Сообщений: 11 ] 
Торрент файл
Размер: 8.95 GB • Зарегистрирован: 1 год 9 месяцев • Статус: Проверено
Скачан: 491 раз • Желающих скачать: 0 • Поблагодарили: 84 раза
 Раздают: 3  |  0 KB/s  ]   Качают: 1  |  0 KB/s  ] 
Сообщения
 Добавлено: 2015-02-13 17:06
DVD Release Group
Аватара пользователя
Стаж: 7 лет 1 месяц
Сообщений: 3569
Спасибок: 247801
Лайков: 1020
Патруль времени

Predestination


Изображение


Год выпуска: 2014
Страна: Австралия
Жанр: Фантастика, триллер
Продолжительность: 01:37:48
Перевод: Профессиональный (полное дублирование)
Субтитры: Русские, английские
Режиссер: Майкл Спириг, Питер Спириг
В ролях: Сара Снук, Итан Хоук, Ноа Тейлор, Элиз Джэнсен, Фрея Стэффорд, Кристофер Кирби, Кейт Вульф, Алексис Фернандес, Люсинда Армстронг Холл, Алисия Павлис
Описание: Специальный агент постоянно находится между прошлым и будущим, чтобы обеспечить себе карьеру законника длиною в вечность. В своем последнем задании ему предстоит завербовать в прошлом самого себя и, наконец, задержать преступника, который вновь и вновь ускользает от него в другое время, находясь всегда на шаг впереди него.
Изображение
Качество: BDRip 1080p
Формат: MKV
Видео кодек: H.264
Аудио кодек: DTS
Видео: 1920x800 23.98fps 10.1Мбит/с
Аудио:
Аудио Rus: 48kHz 6ch 1510Kbps
Аудио Eng: 48kHz 6ch 1510Kbps
"MediaInfo"
Формат : Matroska
Версия формата : Version 2
Размер файла : 8,95 Гбайт
Продолжительность : 1 ч. 37 м.
Общий поток : 13,1 Мбит/сек
Дата кодирования : UTC 2015-02-13 09:06:02
Программа кодирования : mkvmerge v7.6.0 ('Garden of Dreams') 64bit built on Feb 8 2015 13:04:34
Библиотека кодирования : libebml v1.3.1 + libmatroska v1.4.2

Видео
Идентификатор : 1
Формат : AVC
Формат/Информация : Advanced Video Codec
Профиль формата : High@L4.1
Параметр CABAC формата : Да
Параметр ReFrames формата : 5 кадров
Идентификатор кодека : V_MPEG4/ISO/AVC
Продолжительность : 1 ч. 37 м.
Битрейт : 10,1 Мбит/сек
Ширина : 1920 пикселей
Высота : 800 пикселей
Соотношение сторон : 2,40:1
Режим частоты кадров : Постоянный
Частота кадров : 23,976 кадра/сек
Цветовое пространство : YUV
Субдискретизация насыщенности : 4:2:0
Битовая глубина : 8 бит
Тип развёртки : Прогрессивная
Бит/(Пиксели*Кадры) : 0.274
Размер потока : 6,71 Гбайт (75%)
Библиотека кодирования : x264 core 142 r2431 ac76440
Настройки программы : cabac=1 / ref=5 / deblock=1:-3:-3 / analyse=0x3:0x113 / me=umh / subme=10 / psy=1 / psy_rd=1.00:0.05 / mixed_ref=1 / me_range=32 / chroma_me=1 / trellis=2 / 8x8dct=1 / cqm=0 / deadzone=21,11 / fast_pskip=0 / chroma_qp_offset=-2 / threads=18 / lookahead_threads=1 / sliced_threads=0 / nr=0 / decimate=1 / interlaced=0 / bluray_compat=0 / constrained_intra=0 / bframes=4 / b_pyramid=2 / b_adapt=2 / b_bias=0 / direct=3 / weightb=1 / open_gop=0 / weightp=2 / keyint=250 / keyint_min=23 / scenecut=40 / intra_refresh=0 / rc=2pass / mbtree=0 / bitrate=10082 / ratetol=1.0 / qcomp=0.70 / qpmin=0 / qpmax=69 / qpstep=4 / cplxblur=20.0 / qblur=0.5 / ip_ratio=1.40 / pb_ratio=1.30 / aq=2:1.00
Язык : English
Default : Да
Forced : Нет

Аудио #1
Идентификатор : 2
Формат : DTS
Формат/Информация : Digital Theater Systems
Режим : 16
Параметр Endianness формата : Big
Идентификатор кодека : A_DTS
Продолжительность : 1 ч. 37 м.
Вид битрейта : Постоянный
Битрейт : 1509 Кбит/сек
Каналы : 6 каналов
Расположение каналов : Front: L C R, Side: L R, LFE
Частота : 48,0 КГц
Битовая глубина : 24 бит
Метод сжатия : С потерями
Размер потока : 1,03 Гбайт (12%)
Язык : Russian
Default : Да
Forced : Нет

Аудио #2
Идентификатор : 3
Формат : DTS
Формат/Информация : Digital Theater Systems
Режим : 16
Параметр Endianness формата : Big
Идентификатор кодека : A_DTS
Продолжительность : 1 ч. 37 м.
Вид битрейта : Постоянный
Битрейт : 1509 Кбит/сек
Каналы : 6 каналов
Расположение каналов : Front: L C R, Side: L R, LFE
Частота : 48,0 КГц
Битовая глубина : 24 бит
Метод сжатия : С потерями
Размер потока : 1,03 Гбайт (12%)
Язык : English
Default : Нет
Forced : Нет

Текст #1
Идентификатор : 4
Формат : UTF-8
Идентификатор кодека : S_TEXT/UTF8
Идентификатор кодека/Информация : UTF-8 Plain Text
Заголовок : Форсированные
Язык : Russian
Default : Да
Forced : Нет

Текст #2
Идентификатор : 5
Формат : UTF-8
Идентификатор кодека : S_TEXT/UTF8
Идентификатор кодека/Информация : UTF-8 Plain Text
Язык : Russian
Default : Нет
Forced : Нет

Текст #3
Идентификатор : 6
Формат : UTF-8
Идентификатор кодека : S_TEXT/UTF8
Идентификатор кодека/Информация : UTF-8 Plain Text
Заголовок : SDH
Язык : Russian
Default : Нет
Forced : Нет

Текст #4
Идентификатор : 7
Формат : UTF-8
Идентификатор кодека : S_TEXT/UTF8
Идентификатор кодека/Информация : UTF-8 Plain Text
Язык : English
Default : Нет
Forced : Нет

Текст #5
Идентификатор : 8
Формат : UTF-8
Идентификатор кодека : S_TEXT/UTF8
Идентификатор кодека/Информация : UTF-8 Plain Text
Заголовок : SDH
Язык : English
Default : Нет
Forced : Нет

Меню
00:00:00.000 : en:Main Titles: Gainsville, GA 1863
00:07:51.053 : en:There's Never Enough Time..
00:13:25.221 : en:Ruin in the Rain
00:15:39.271 : en:Wall Street October 30, 1929
00:22:49.534 : en:Justice in Time
00:24:07.863 : en:Trouble with the T.E.C.
00:34:07.086 : en:Killers for Company
00:39:00.588 : en:A Blast to the Past
00:43:38.240 : en:Back to 1994
00:47:14.790 : en:McComb's Future
01:01:00.156 : en:The Only Way Back
01:07:07.398 : en:The Fugitive From the Future
01:14:08.902 : en:A Fight for the Future
01:26:11.416 : en:McComb Gets Tougher
01:29:40.083 : en:The New Future
01:33:24.056 : en:"Time Won't Let Me"
01:37:47.862 : en:
Свернуть

"Скриншоты"
Изображение
Изображение
Изображение
Изображение
Изображение
Изображение
Свернуть
 sashannov, vitso и Prov1zoR нравится это.
Не в сети
Профиль  
 Добавлено: 2015-02-14 23:15 (спустя 1 день 6 часов)
Аватара пользователя
Стаж: 9 лет 1 месяц
Сообщений: 2154
Спасибок: 778
Лайков: 14
Очень странный фильм, я бы даже сказал местами противный.
_________________
PSN
Изображение
Свернуть
Изображение
Не в сети
Профиль  
 Добавлено: 2015-02-15 18:44 (спустя 19 часов)
Стаж: 3 года 10 месяцев
Сообщений: 187
Лайков: 61
Да уж... Загнули так загнули, инцест прям какой то получился, но всё равно интересно :hi_hi_hi:
Не в сети
Профиль  
 Добавлено: 2015-02-16 23:30 (спустя 1 день 4 часа)
Стаж: 5 лет 7 месяцев
Сообщений: 154
Лайков: 35
куча вопросов осталось Вандам не смотри это кино
Не в сети
Профиль  
 Добавлено: 2015-02-19 15:08 (спустя 2 дня 15 часов)
Стаж: 8 лет 7 месяцев
Сообщений: 46
Просто бред, особенно в конце (
Не в сети
Профиль  
 Добавлено: 2015-02-19 22:01 (спустя 6 часов)
Стаж: 8 лет 2 месяца
Сообщений: 10
Спасибок: 1
Бред сивой кобылы............
Не в сети
Профиль  
 Добавлено: 2015-02-20 16:06 (спустя 18 часов)
Аватара пользователя
Стаж: 8 лет 2 месяца
Сообщений: 23
Спасибок: 1
кино полный шлак- не качать!
Не в сети
Профиль  
 Добавлено: 2015-02-22 23:54 (спустя 2 дня 7 часов)
Кинокомментатор
Аватара пользователя
Стаж: 9 лет 1 месяц
Сообщений: 1332
Лайков: 54
интересное кино... честно, не читал до просмотра о чём и что да как... в общем ожидал боевика с задумкой, но без сюжета, и с большими перестрелками и погонями!) но... встретил это кино, и это кино оказалось куда интереснее ожидания! конечно недотянули они... всё как то всё же на поверхности оказалось) под конец загадки то уже не было(
змея поедающая свой хвост... получает 8/10... за неожиданность)
_________________
Я ВКонтакте
Не в сети
Профиль  
 Добавлено: 2015-02-23 01:46 (спустя 1 час 51 минута)
Стаж: 8 лет 3 месяца
Сообщений: 67
Лайков: 3
Заценим... как раз нужно мозги пропаласкать
Не в сети
Профиль  
 Добавлено: 2015-02-23 12:02 (спустя 10 часов)
Аватара пользователя
Стаж: 9 лет 1 месяц
Возраст: 36
Сообщений: 195
Спасибок: 20
Лайков: 8
Сам себе и муж и жена и мать и отец и дочь и сын, сам себя искал, и в конце еще и убил сам себя, вот краткое содержание фильма))))
Не в сети
Профиль  
 Добавлено: 2015-02-25 12:58 (спустя 2 дня)
Стаж: 7 лет 9 месяцев
Сообщений: 24
а вы че хотели это ж триллер!фильм норм!советую посмотреть,развязка интересная.А кто обсирает тот просто отбивает желание посмотреть фильм другим,так что не парьтесь качайте и смотрите!и никогда не слушайте коменты!сколько людей столько и мнений!из 10 ставлю 8 этому фильму!
Не в сети
Профиль  
Начать новую темуОтветить на тему  [ Сообщений: 11 ] 
Вы не можете начинать темы
Вы не можете отвечать на сообщения
Вы не можете редактировать свои сообщения
Вы не можете удалять свои сообщения