Правила форума

  • В этом разделе создание новых тем Запрещено.
  • Для создания новых тем пользуйтесь Корневым разделом DVD и HD фильмы.
Начать новую темуОтветить на тему  [ Сообщений: 2 ] 
Торрент файл
Размер: 4.5 GB • Зарегистрирован: 1 год 2 месяца • Статус: T Временный релиз
Скачан: 28 раз • Желающих скачать: 0 • Поблагодарили: 6 раз
 Раздают: 1  |  3 MB/s  ]   Качают: 1  |  0 KB/s  ] 
Сообщения
 Добавлено: 2015-10-02 12:45
Аватара пользователя
Стаж: 8 лет 3 месяца
Возраст: 33
Сообщений: 319
Спасибок: 602
Лайков: 34
Перед классом

Front of the Class

Изображение



Год выпуска: 2008
Страна: США Изображение
Жанр: Драма
Продолжительность: 01:35:55
Перевод: Любительский (одноголосый закадровый) (Вячеслав Прошин)
Режиссёр: Питер Уэрнер
В ролях: Джеймс Волк, Трит Уильямс, Доминик Скотт Кэй, Сара Дрю, Кэтлин Йорк, Джо Крест, Патриция Хитон, Джонни Пакар, Чарльз Генри Висон, Чарли Финн

Описание: С шести лет Брэд страдает синдромом Туретта. Его симптомы — частые моторные и вокальные тики, которые невозможно подавить. Тем не менее, Брэд бросает вызов всем барьерам и неприятностям, и даже двадцать четыре отказа подряд не останавливают его на пути к своей мечте — стать учителем.

Доп.информация: Фильм основан на автобиографической книге Брэда Коэна «Front of the Class: How Tourette Syndrome Made Me the Teacher I Never Had».

Изображение Изображение

Качество: HDTVRip 720p
Формат: MKV
Видео кодек: H.264
Аудио кодек: AC3
Видео: H264, 1280х720, 16:9, 6010 Кбит/сек, 23,976 кадров/сек
Аудио #1: Русский, AC-3, 2 канала, 48,0 КГц, 192 Кбит/сек
Аудио #2: Английский, AC-3, 6 каналов, 48,0 КГц, 384 Кбит/сек
Субтитры: Английские, Русские (отдельным файлом)
MediaInfo
Общее:
Уникальный идентификатор : 235355637054308796360306118581975925546 (0xB10FD8CE541735488DA2AA4BFBF2432A)
Формат : Matroska
Версия формата : Version 4 / Version 2
Размер файла : 4,50 Гбайт
Продолжительность : 1 ч. 35 м.
Общий поток : 6719 Кбит/сек
Дата кодирования : UTC 2013-04-03 19:43:04
Программа кодирования : mkvmerge v6.1.0 ('Old Devil') built on Mar 2 2013 14:32:37
Библиотека кодирования : libebml v1.3.0 + libmatroska v1.4.0

Видео:
Идентификатор : 1
Формат : AVC
Формат/Информация : Advanced Video Codec
Профиль формата : High@L4.1
Параметр CABAC формата : Да
Параметр ReFrames формата : 5 кадров
Идентификатор кодека : V_MPEG4/ISO/AVC
Продолжительность : 1 ч. 35 м.
Битрейт : 6010 Кбит/сек
Ширина : 1280 пикселей
Высота : 720 пикселей
Соотношение сторон : 16:9
Частота кадров : 23,976 кадра/сек
Стандарт вещания : Component
Цветовое пространство : YUV
Субдискретизация насыщенности : 4:2:0
Битовая глубина : 8 бит
Тип развёртки : Прогрессивная
Бит/(Пиксели*Кадры) : 0.272
Размер потока : 4,03 Гбайт (89%)
Default : Да
Forced : Нет
Основные цвета : BT.709-5, BT.1361, IEC 61966-2-4, SMPTE RP177
Характеристики трансфера : BT.709-5, BT.1361
Коэффициенты матрицы : BT.709-5, BT.1361, IEC 61966-2-4 709, SMPTE RP177

Аудио #1:
Идентификатор : 2
Формат : AC-3
Формат/Информация : Audio Coding 3
Расширение режима : CM (complete main)
Параметр Endianness формата : Big
Идентификатор кодека : A_AC3
Продолжительность : 1 ч. 35 м.
Вид битрейта : Постоянный
Битрейт : 192 Кбит/сек
Каналы : 2 канала
Расположение каналов : Front: L R
Частота : 48,0 КГц
Битовая глубина : 16 бит
Метод сжатия : С потерями
Размер потока : 132 Мбайт (3%)
Язык : Russian
Default : Да
Forced : Да

Аудио #2:
Идентификатор : 3
Формат : AC-3
Формат/Информация : Audio Coding 3
Расширение режима : CM (complete main)
Параметр Endianness формата : Big
Идентификатор кодека : A_AC3
Продолжительность : 1 ч. 35 м.
Вид битрейта : Постоянный
Битрейт : 384 Кбит/сек
Каналы : 6 каналов
Расположение каналов : Front: L C R, Side: L R, LFE
Частота : 48,0 КГц
Битовая глубина : 16 бит
Метод сжатия : С потерями
Размер потока : 263 Мбайт (6%)
Язык : English
Default : Нет
Forced : Нет

Текст:
Идентификатор : 4
Формат : UTF-8
Идентификатор кодека : S_TEXT/UTF8
Идентификатор кодека/Информация : UTF-8 Plain Text
Язык : English
Default : Нет
Forced : Нет
Свернуть

Знаете ли Вы, что...
Фильм основан на автобиографической книге Брэда Коэна «Front of the Class: How Tourette Syndrome Made Me the Teacher I Never Had».

В фильме можно увидеть Брэда Коэна и его жену, которые исполнили эпизодические роли.
Свернуть

Скриншоты
Изображение
Изображение
Изображение
Изображение
Свернуть
Не в сети
Профиль  
 Добавлено: 2016-11-13 10:50 (спустя 1 год 1 месяц)
Аватара пользователя
Стаж: 8 лет 3 месяца
Возраст: 33
Сообщений: 319
Спасибок: 602
Лайков: 34
Наконец-то посмотрел, отличный, добрый фильм :co_ol:
Не в сети
Профиль  
Начать новую темуОтветить на тему  [ Сообщений: 2 ] 
Вы не можете начинать темы
Вы не можете отвечать на сообщения
Вы не можете редактировать свои сообщения
Вы не можете удалять свои сообщения