Правила форума

  • В этом разделе создание новых тем Запрещено.
  • Для создания новых тем пользуйтесь Корневым разделом DVD и HD фильмы.
Начать новую темуОтветить на тему  [ Сообщений: 2 ] 
Торрент файл
Размер: 11.8 GB • Зарегистрирован: 3 года • Статус: T Временный релиз
Скачан: 7 раз • Желающих скачать: 0 • Поблагодарили: 5 раз
 Раздают: 0  |  0 KB/s  ]   Качают: 0  |  0 KB/s  ] 
 Полного источника не было 1 месяц 18 дней 
Сообщения
 Добавлено: 2013-11-20 19:42
Аватара пользователя
Стаж: 3 года 6 месяцев
Сообщений: 175
Спасибок: 4258
Лайков: 29
Перед полуночью / Before Midnight

Изображение


Год выпуска: 2013
Страна: США (Castle Rock Entertainment, Detour Filmproduction, Faliro House Productions, Sony Pictures Classics, Venture Forth)
Жанр: Драма, Мелодрама
Продолжительность: 01:48:54
Перевод: Авторский (одноголосый закадровый) (М.Чадов)
Субтитры: Вшитые отключаемые
Язык субтитров: Русский, английский


Режиссёр: Ричард Линклейтер
В ролях: Итан Хоук, Жюли Дельпи, Шеймас Дэви-Фицпатрик, Дженнифер Прайор, Шарлотта Прайор, Ксения Калогеропулу, Уолтер Лассали, Ариана Лабед, Яннис Пападопулос, Афина Рахель Цангари
Описание: Мы встречаем Джесси и Селин еще через 9 лет в Греции. Почти два десятилетия прошло с их первой встречи в поезде, направляющемся в Вену. Место действия — солнечная Греция с восхитительными закатами на море — что может быть чудеснее?! Джесс всё тот же юморист, Селин продолжает спасать мир. И в них столько жизни!
Доп.информация: Сохранены оригинальные чаптеры как на Blu-Ray
Рейтинг MPAA: Рейтинг R (Подростки до 17 лет допускаются на фильм только в сопровождении одного из родителей)
Мировая премьера: 20 января 2013
Премьера в России: 11 июля 2013, «West»
Изображение
Изображение

Качество: BDRip 1080p
Формат: MKV
Видео кодек: MPEG-4 AVC/H.264
Аудио кодек: AC3 (Dolby Digital), DTS
Видео: 1920x1036, H264, 13.5 Мбит/с, 23.976 кадр/с
Аудио #1: Русский: AC3, 5.1, 448 Кбит/с, 48kHz, 16 bit [Авторский одноголосый (М.Чадов)]
Аудио #2: Английский: DTS, 5.1, 1536 Кбит/с, 48 kHz, 24 bit
Аудио #3: Английский: AC3, 2.0, 192 Кбит/с, 48kHz, 16 bit
Изображение
Скриншоты
Изображение
Изображение
Изображение
Изображение
Свернуть

MediaInfo
Общее
Уникальный идентификатор : 214434084235605119311375667218017858919 (0xA152809CCE2F60B78575C3427792B567)
Полное имя : D:\Video\Before.Midnight.2013.BDRip.1080p.mkv
Формат : Matroska
Версия формата : Version 4 / Version 2
Размер файла : 11,8 Гбайт
Продолжительность : 1 ч. 48 м.
Общий поток : 15,5 Мбит/сек
Дата кодирования : UTC 2013-11-19 13:54:11
Программа кодирования : mkvmerge v6.5.0 ('Isn't she lovely') built on Oct 20 2013 12:50:05
Библиотека кодирования : libebml v1.3.0 + libmatroska v1.4.1

Видео
Идентификатор : 1
Формат : AVC
Формат/Информация : Advanced Video Codec
Профиль формата : High@L4.1
Параметр CABAC формата : Да
Параметр ReFrames формата : 4 кадра
Идентификатор кодека : V_MPEG4/ISO/AVC
Продолжительность : 1 ч. 48 м.
Номинальный битрейт : 13,5 Мбит/сек
Ширина : 1920 пикселей
Высота : 1036 пикселей
Соотношение сторон : 1,85:1
Режим частоты кадров : Постоянный
Частота кадров : 23,976 кадра/сек
Цветовое пространство : YUV
Субдискретизация насыщенности : 4:2:0
Битовая глубина : 8 бит
Тип развёртки : Прогрессивная
Бит/(Пиксели*Кадры) : 0.283
Библиотека кодирования : x264 core 136 r2348+704+51 d1baef6 tMod [8-bit@all X86_64]
Настройки программы : cabac=1 / ref=4 / deblock=1:-3:-3 / analyse=0x3:0x133 / me=umh / subme=11 / psy=1 / fade_compensate=0.00 / psy_rd=1.05:0.15 / mixed_ref=1 / me_range=64 / chroma_me=1 / trellis=2 / 8x8dct=1 / cqm=0 / deadzone=21,11 / fast_pskip=0 / chroma_qp_offset=-3 / threads=12 / lookahead_threads=2 / sliced_threads=0 / nr=0 / decimate=1 / interlaced=0 / bluray_compat=0 / constrained_intra=0 / fgo=0 / bframes=8 / b_pyramid=2 / b_adapt=2 / b_bias=0 / direct=3 / weightb=1 / open_gop=0 / weightp=2 / keyint=250 / keyint_min=23 / scenecut=40 / intra_refresh=0 / rc_lookahead=120 / rc=2pass / mbtree=1 / bitrate=13500 / ratetol=1.0 / qcomp=0.65 / qpmin=0:0:0 / qpmax=69:69:69 / qpstep=4 / cplxblur=20.0 / qblur=0.5 / vbv_maxrate=50000 / vbv_bufsize=50000 / nal_hrd=none / ip_ratio=1.40 / aq=1:0.70 / aq-sensitivity=10.00 / aq-factor=1.00:1.00:1.00 / aq2=0 / aq3=0
Язык : English
Default : Да
Forced : Нет
Коэффициенты матрицы : BT.709

Аудио #1
Идентификатор : 2
Формат : AC-3
Формат/Информация : Audio Coding 3
Расширение режима : CM (complete main)
Параметр Endianness формата : Big
Идентификатор кодека : A_AC3
Продолжительность : 1 ч. 48 м.
Вид битрейта : Постоянный
Битрейт : 448 Кбит/сек
Каналы : 6 каналов
Расположение каналов : Front: L C R, Side: L R, LFE
Частота : 48,0 КГц
Битовая глубина : 16 бит
Метод сжатия : С потерями
Размер потока : 349 Мбайт (3%)
Заголовок : Михаил Чадов
Язык : Russian
Default : Да
Forced : Да

Аудио #2
Идентификатор : 3
Формат : DTS
Формат/Информация : Digital Theater Systems
Режим : 16
Параметр Endianness формата : Big
Идентификатор кодека : A_DTS
Продолжительность : 1 ч. 48 м.
Вид битрейта : Постоянный
Битрейт : 1509 Кбит/сек
Каналы : 6 каналов
Расположение каналов : Front: L C R, Side: L R, LFE
Частота : 48,0 КГц
Битовая глубина : 24 бит
Метод сжатия : С потерями
Размер потока : 1,15 Гбайт (10%)
Язык : English
Default : Нет
Forced : Нет

Аудио #3
Идентификатор : 4
Формат : AAC
Формат/Информация : Advanced Audio Codec
Профиль формата : HE-AAC / LC
Идентификатор кодека : A_AAC
Продолжительность : 1 ч. 48 м.
Каналы : 2 канала
Расположение каналов : Front: L R
Частота : 48,0 КГц / 24,0 КГц
Метод сжатия : С потерями
Задержка видео : 31 мс.
Заголовок : Commentary
Язык : English
Default : Нет
Forced : Нет

Текст #1
Идентификатор : 5
Формат : UTF-8
Идентификатор кодека : S_TEXT/UTF8
Идентификатор кодека/Информация : UTF-8 Plain Text
Заголовок : Евгений Кудашев
Язык : Russian
Default : Нет
Forced : Нет

Текст #2
Идентификатор : 6
Формат : UTF-8
Идентификатор кодека : S_TEXT/UTF8
Идентификатор кодека/Информация : UTF-8 Plain Text
Язык : English
Default : Нет
Forced : Нет

Меню #1
00:00:00.000 : en:00:00:00.000
00:06:20.046 : en:00:06:20.046
00:19:32.588 : en:00:19:32.588
00:21:44.345 : en:00:21:44.345
00:27:28.814 : en:00:27:28.814
00:29:36.692 : en:00:29:36.692
00:37:08.643 : en:00:37:08.643
00:46:51.142 : en:00:46:51.142
00:59:11.590 : en:00:59:11.590
01:01:09.708 : en:01:01:09.708
01:04:42.796 : en:01:04:42.796
01:06:13.219 : en:01:06:13.219
01:09:44.931 : en:01:09:44.931
01:19:05.532 : en:01:19:05.532
01:26:59.548 : en:01:26:59.548
01:35:58.127 : en:01:35:58.127

Меню #2
00:00:00.097 : en:00:00:00.097
Свернуть
Знаете ли Вы, что...
Фильм посвящен памяти Эми, женщины, чей образ послужил основой для фильма «Перед рассветом» (1995). Ричард Линклейтер провел ночь, гуляя и разговаривая с ней в Филадельфии, но, в конце концов, они потеряли контакт. В промежутке между фильмами «Перед закатом» (2004) и «Перед полуночью» (2013) он, наконец, узнал, что Эми умерла много лет назад в ДТП, поэтому он посвятил фильм ей.
Свернуть
Не в сети
Профиль  
 Добавлено: 2013-11-21 00:23 (спустя 4 часа)
Аватара пользователя
Стаж: 8 лет 1 месяц
Сообщений: 154
Спасибок: 58
Лайков: 9
Итан Хоук в последнее время в фильмах явно сказать Го..о сниматься стал((( Жаль.
Не в сети
Профиль  
Начать новую темуОтветить на тему  [ Сообщений: 2 ] 
Вы не можете начинать темы
Вы не можете отвечать на сообщения
Вы не можете редактировать свои сообщения
Вы не можете удалять свои сообщения