Правила форума

  • В этом разделе создание новых тем Запрещено.
  • Для создания новых тем пользуйтесь Корневым разделом DVD и HD фильмы.
Начать новую темуОтветить на тему  [ 1 сообщение ] 
Торрент файл
Размер: 5.24 GB • Зарегистрирован: 2 года 8 месяцев • Статус: Проверено
Скачан: 37 раз • Желающих скачать: 0 • Поблагодарили: 19 раз
 Раздают: 2  |  0 KB/s  ]   Качают: 0  |  0 KB/s  ] 
Сообщения
 Добавлено: 2014-03-15 20:40
DVD Release Group
Аватара пользователя
Стаж: 7 лет 1 месяц
Сообщений: 3544
Спасибок: 246939
Лайков: 1018
Перекрестный огонь

Bad Country


Изображение


Год выпуска: 2014
Страна: США
Жанр: Триллер, драма, детектив, боевик, криминал
Продолжительность: 01:44:22
Перевод: Профессиональный (многоголосый, закадровый)
Субтитры: Английские
Режиссер: Крис Бринкер
В ролях: Уиллем Дефо, Эми Смарт, Мэтт Диллон, Крис Маркетт, Том Беренджер, Нил МакДонаф, Дж.Д. Эвермор, Кристофер Денэм, Кевин Чэпмен, Билл Дьюк
Описание: Фильм снят по реальным событиям. Расследование детектива Бада Картера приводит к аресту Джесси Вейланда, наемного убийцы из преступного синдиката. Вейланд осознает, что попав в тюрьму, он потеряет свою семью, и решает довериться Картеру, став его информатором.
Изображение
Качество: BDRip 720p
Формат: MKV
Видео кодек: H.264
Аудио кодек: AC3, DTS
Видео: 1280x720 23.98fps 5156Kbps
Аудио:
Аудио Rus: AC3 48kHz 6ch 384kbps
Аудио Eng: DTS 48kHz 6ch 1510kbps
"MediaInfo"
Формат : Matroska
Версия формата : Version 2
Размер файла : 5,24 Гбайт
Продолжительность : 1 ч. 44 м.
Общий поток : 7193 Кбит/сек
Дата кодирования : UTC 2014-03-15 16:44:03
Программа кодирования : mkvmerge v6.7.0 ('Back to the Ground') 64bit built on Jan 8 2014 15:10:52
Библиотека кодирования : libebml v1.3.0 + libmatroska v1.4.1

Видео
Идентификатор : 1
Формат : AVC
Формат/Информация : Advanced Video Codec
Профиль формата : High@L4.1
Параметр CABAC формата : Да
Параметр ReFrames формата : 5 кадров
Идентификатор кодека : V_MPEG4/ISO/AVC
Продолжительность : 1 ч. 44 м.
Битрейт : 5156 Кбит/сек
Ширина : 1280 пикселей
Высота : 720 пикселей
Соотношение сторон : 16:9
Частота кадров : 23,976 кадра/сек
Цветовое пространство : YUV
Субдискретизация насыщенности : 4:2:0
Битовая глубина : 8 бит
Тип развёртки : Прогрессивная
Бит/(Пиксели*Кадры) : 0.233
Размер потока : 3,76 Гбайт (72%)
Язык : English
Default : Да
Forced : Нет

Аудио #1
Идентификатор : 2
Формат : AC-3
Формат/Информация : Audio Coding 3
Расширение режима : CM (complete main)
Идентификатор кодека : A_AC3
Продолжительность : 1 ч. 44 м.
Вид битрейта : Постоянный
Битрейт : 384 Кбит/сек
Каналы : 6 каналов
Расположение каналов : Front: L C R, Side: L R, LFE
Частота : 48,0 КГц
Битовая глубина : 16 бит
Метод сжатия : С потерями
Размер потока : 287 Мбайт (5%)
Язык : Russian
Default : Да
Forced : Нет

Аудио #2
Идентификатор : 3
Формат : DTS
Формат/Информация : Digital Theater Systems
Идентификатор кодека : A_DTS
Продолжительность : 1 ч. 44 м.
Вид битрейта : Постоянный
Битрейт : 1510 Кбит/сек
Каналы : 6 каналов
Расположение каналов : Front: L C R, Side: L R, LFE
Частота : 48,0 КГц
Битовая глубина : 24 бит
Метод сжатия : С потерями
Размер потока : 1,10 Гбайт (21%)
Язык : English
Default : Нет
Forced : Нет

Меню
00:00:00.000 : en:00:00:00.000
00:07:08.094 : en:00:07:08.094
00:12:23.409 : en:00:12:23.409
00:17:25.962 : en:00:17:25.962
00:25:57.681 : en:00:25:57.681
00:30:55.979 : en:00:30:55.979
00:39:20.567 : en:00:39:20.567
00:46:28.202 : en:00:46:28.202
00:53:10.479 : en:00:53:10.479
00:58:37.723 : en:00:58:37.723
01:02:18.944 : en:01:02:18.944
01:09:40.510 : en:01:09:40.510
01:16:09.690 : en:01:16:09.690
01:21:41.021 : en:01:21:41.021
01:27:55.812 : en:01:27:55.812
01:35:38.733 : en:01:35:38.733
Свернуть

"Скриншоты"
Изображение
Изображение
Изображение
Изображение
Свернуть
Не в сети
Профиль  
Начать новую темуОтветить на тему  [ 1 сообщение ] 
Вы не можете начинать темы
Вы не можете отвечать на сообщения
Вы не можете редактировать свои сообщения
Вы не можете удалять свои сообщения