Правила форума

  • В этом разделе создание новых тем Запрещено.
  • Для создания новых тем пользуйтесь Корневым разделом DVD и HD фильмы.
Начать новую темуОтветить на тему  [ 1 сообщение ] 
Торрент файл
Размер: 4.38 GB • Зарегистрирован: 5 лет 8 месяцев • Статус: Проверено
Скачан: 21 раз • Желающих скачать: 0 • Поблагодарили: 5 раз
 Раздают: 0  |  0 KB/s  ]   Качают: 0  |  0 KB/s  ] 
 Полного источника не было 3 года 2 месяца 
Сообщения
 Добавлено: 2011-03-27 21:30
Модератор
Аватара пользователя
Стаж: 8 лет 1 месяц
Сообщений: 1991
Спасибок: 129865
Лайков: 20
Перекресток Миллера / Miller's Crossing


«Nothing is what it seems at Miller's Crossing»



Изображение
Год выпуска: 1990
Страна: Изображение США
Жанр: триллер, драма, криминал
Продолжительность:
01:54:35

Перевод: Оригинальный, Профессиональный (многоголосый, закадровый), Профессиональный (полное дублирование) [лицензия]

Режиссер: Джоэл Коэн, Итэн Коэн
Сценарий: Джоэл Коэн, Итэн Коэн, Дэшил Хэммет
Продюсер: Итэн Коэн, Джоэл Коэн, Бен Баренхольц, Грэхэм Плэйс, Марк Силверман
Оператор: Барри Зонненфельд
Композитор: Картер Бёруэлл

В ролях:
Гэбриел Бирн (Tom Reagan), Джон Туртурро (Bernie Bernbaum), Альберт Финни (Leo), Марша Гэй Харден (Verna), Джон Полито (Johnny Caspar), Дж. Э. Фримен (Eddie Dane), Майк Старр (Frankie), Аль Манчини (Tic-Tac), Ричард Вуд (Mayor Dale Levander), Томас Тонер (O'Doole), Стив Бушеми (Mink), Марио Тодиско (Clarence "Drop" Johnson)

Описание: Америка тридцатых годов. Время сухого закона. Преступные кланы в любой момент готовы развязать кровавую войну за контроль над поставками нелегального алкоголя. Том Рейган - умный и авторитетный преступник, бывший советник одного из мафиозных боссов. Он своего рода анти-герой, абсолютно аморальный эгоистичный и подлый человек.
Но, тем не менее, своими незаурядными способностями оставаться живым после самых крутых разборок, вызывает искренние симпатии. Он умело балансирует между двумя готовыми в любой момент сорваться бандами, пытаясь удержать их от начала войны. Но долго так продолжаться не может, и у Тома возникают такие проблемы, от решения которых будут зависеть судьбы слишком многих людей....


Изображение: 7.889 (2 717)
Изображение: 8.00 (46 755)

MPAA: Изображение - Лицам до 17 лет обязательно присутствие взрослого

Доп. Информация

Бюджет: $14 000 000
Сборы в США: $5 080 409
Мировая премьера: 21 сентября 1990
Изображение Релиз на DVD: 18 июня 2009, «Двадцатый Век Фокс СНГ»
Изображение Релиз на Blu-ray: 4 августа 2011, «Двадцатый Век Фокс СНГ»

Свернуть

Качество: HDTVRip 720p

Формат: Matroska
Видео: AVC; 1280x720 (16:9); 4077 Kbps; 23,976 fps; 0,185 bpp
Аудио №1: Russian; AC3; 384 Kbps; CBR; 6 ch (Dub R5)
Аудио №2: Russian; AC3; 448 Kbps; CBR; 4 ch (MVO)
Аудио №3: English; AC3; 448 Kbps; CBR; 4 ch
Субтитры №1: Russian; SRT; UTF-8
Субтитры №2: Russian; SRT; UTF-8
Субтитры №3: Russian; SRT; UTF-8
Субтитры №4: English; SRT; UTF-8


Знаете ли Вы, что...
  • Ниагарский водопад, куда Том саркастически предлагает отправится Верне, прихватив с собой Берни, в начале ХХ-го века являлся традиционным местом американцев для свадебного путешествия.
  • Из просмотра довольно сложно понять - в каком именно городе по сценарию происходит действие фильма. Название газеты, вывеска клуба (Shenandoah club) и т.п. мало проясняют ситуацию. Фактически же съемки производились в Новом Орлеане, в котором Коэны нашли целые кварталы, сохранившие архитектуру образца 1929 года.
Свернуть
BDInfo

General
Complete name : C:\Miller's.Crossing.1990.HDTVRip.720p.[zoneland.ru].mkv
Format : Matroska
File size : 4.38 GiB
Duration : 1h 54mn
Overall bit rate : 5 467 Kbps
Movie name : Miller's.Crossing.1990.HDTVRip.720p.[zoneland.ru].mkv
Encoded date : UTC 2010-07-16 08:30:04
Writing application : mkvmerge v4.0.0 ('The Stars were mine') built on Jun 6 2010 16:18:42
Writing library : libebml v1.0.0 + libmatroska v1.0.0


Video
ID : 1
Format : AVC
Format/Info : Advanced Video Codec
Format profile : High@L4.1
Format settings, CABAC : Yes
Format settings, ReFrames : 6 frames
Muxing mode : Container profile=Unknown@4.1
Codec ID : V_MPEG4/ISO/AVC
Duration : 1h 54mn
Bit rate : 4 078 Kbps
Nominal bit rate : 4 416 Kbps
Width : 1 280 pixels
Height : 720 pixels
Display aspect ratio : 16:9
Frame rate : 23.976 fps
Color space : YUV
Chroma subsampling : 4:2:0
Bit depth : 8 bits
Scan type : Progressive
Bits/(Pixel*Frame) : 0.185
Stream size : 3.26 GiB (75%)
Writing library : x264 core 102 r1666 d058f37
Encoding settings : cabac=1 / ref=6 / deblock=1:-3:-3 / analyse=0x3:0x113 / me=umh / subme=9 / psy=1 / psy_rd=1.00:0.00 / mixed_ref=1 / me_range=32 / chroma_me=1 / trellis=2 / 8x8dct=1 / cqm=0 / deadzone=21,11 / fast_pskip=0 / chroma_qp_offset=-2 / threads=3 / sliced_threads=0 / nr=0 / decimate=1 / interlaced=0 / constrained_intra=0 / bframes=5 / b_pyramid=2 / b_adapt=2 / b_bias=0 / direct=3 / weightb=1 / open_gop=0 / weightp=2 / keyint=250 / keyint_min=25 / scenecut=40 / intra_refresh=0 / rc_lookahead=50 / rc=2pass / mbtree=1 / bitrate=4416 / ratetol=1.0 / qcomp=0.60 / qpmin=10 / qpmax=51 / qpstep=4 / cplxblur=20.0 / qblur=0.5 / vbv_maxrate=50000 / vbv_bufsize=50000 / ip_ratio=1.40 / aq=1:1.00 / nal_hrd=none


Audio #1
ID : 2
Format : AC-3
Format/Info : Audio Coding 3
Mode extension : CM (complete main)
Codec ID : A_AC3
Duration : 1h 54mn
Bit rate mode : Constant
Bit rate : 384 Kbps
Channel(s) : 6 channels
Channel positions : Front: L C R, Side: L R, LFE
Sampling rate : 48.0 KHz
Stream size : 315 MiB (7%)
Title : AC3 DD; 6ch; 48kHz; 384kbps (Dub)
Language : Russian


Audio #2
ID : 3
Format : AC-3
Format/Info : Audio Coding 3
Mode extension : CM (complete main)
Codec ID : A_AC3
Duration : 1h 54mn
Bit rate mode : Constant
Bit rate : 448 Kbps
Channel(s) : 4 channels
Channel positions : Front: L C R, Side: C
Sampling rate : 48.0 KHz
Stream size : 367 MiB (8%)
Title : AC3 DD; 4ch; 48kHz; 448kbps (MVO)
Language : Russian


Audio #3
ID : 4
Format : AC-3
Format/Info : Audio Coding 3
Mode extension : CM (complete main)
Codec ID : A_AC3
Duration : 1h 54mn
Bit rate mode : Constant
Bit rate : 448 Kbps
Channel(s) : 4 channels
Channel positions : Front: L C R, Side: C
Sampling rate : 48.0 KHz
Stream size : 367 MiB (8%)
Title : AC3 DD; 4ch; 48kHz; 448kbps


Text #1
ID : 5
Format : UTF-8
Codec ID : S_TEXT/UTF8
Codec ID/Info : UTF-8 Plain Text
Language : Russian


Text #2
ID : 6
Format : UTF-8
Codec ID : S_TEXT/UTF8
Codec ID/Info : UTF-8 Plain Text
Language : Russian


Text #3
ID : 7
Format : UTF-8
Codec ID : S_TEXT/UTF8
Codec ID/Info : UTF-8 Plain Text
Language : Russian


Text #4
ID : 8
Format : UTF-8
Codec ID : S_TEXT/UTF8
Codec ID/Info : UTF-8 Plain Text
Свернуть
Скриншоты

Изображение
Изображение
Изображение
Изображение
Изображение
Свернуть

_________________
Себе ты можешь не качать, но раздавать другим обязан!
Не в сети
Профиль  
Начать новую темуОтветить на тему  [ 1 сообщение ] 
Вы не можете начинать темы
Вы не можете отвечать на сообщения
Вы не можете редактировать свои сообщения
Вы не можете удалять свои сообщения