Правила форума

  • В этом разделе создание новых тем Запрещено.
  • Для создания новых тем пользуйтесь Корневым разделом DVD и HD фильмы.
Начать новую темуОтветить на тему  [ Сообщений: 2 ] 
Торрент файл
Размер: 4.29 GB • Зарегистрирован: 1 год 1 месяц • Статус: T Временный релиз
Скачан: 54 раза • Желающих скачать: 0 • Поблагодарили: 5 раз
 Раздают: 1  |  0 KB/s  ]   Качают: 0  |  0 KB/s  ] 
Сообщения
 Добавлено: 2015-10-29 08:30
RG-ELEKTRO
Аватара пользователя
Стаж: 2 года 3 месяца
Сообщений: 7928
Спасибок: 53743
Лайков: 3304
Переправа 2 / The Crossing 2


Изображение


Год выпуска: 2015
Страна: Китай, Япония, Корея Южная, США (Beijing Gallop Horse Film & TV Production, China Film Group Corporation, Lion Rock Productions, Yoozoo Pictures, Zhejiang Huace Film & TV)
Жанр: драма
Продолжительность: 02:06:16
Перевод: Профессиональный (дубляж) [iTunes]

Режиссёр: Джон Ву
В ролях: Такэси Канэсиро, Чжан Цзыи, Тун Давэй, Масами Нагасава, Фрэнк М. Эхерн, Шан Конг, Джек Као, Хитоми Куроки, Боуи Лам, Вэй Ли
Описание: Герои фильма уже поднялись на борт злополучного корабля «Тайпин». Как и остальные пассажиры лайнера, они оказались на краю смерти. Всё смешалось в бурном потоке волн: радость и печаль, любовь и ненависть, жизнь и смерть. Кто сможет спастись и вырваться из круговорота трагических событий? А кто навсегда останется погребённым в холодных водах Тайваньского пролива?

Изображение Изображение Изображение
Качество: WEB-DL 1080p
Формат: MKV
Видео кодек: MPEG-4 AVC
Аудио кодек: AC3
Видео: MPEG-4 AVC, 4388 Кбит/с, 1920x802
Аудио #1: AC3, 384 kb/s (6 ch) [Профессиональный (дубляж)]

"MI"
General
Unique ID : 241557100235162535464942709988291296522 (0xB5BA348C10AED9FBB6AEA47CD9F0BD0A)
Complete name : D:\фильмы\PerepraBa.2.2015.D.WEB-DL.1080p.mkv
Format : Matroska
Format version : Version 4 / Version 2
File size : 4.29 GiB
Duration : 2h 6mn
Overall bit rate : 4 869 Kbps
Encoded date : UTC 2015-10-28 19:31:33
Writing application : mkvmerge v8.3.0 ('Over the Horizon') 64bit
Writing library : libebml v1.3.1 + libmatroska v1.4.2
DURATION : 02:06:15.488000000
NUMBER_OF_FRAMES : 236734
NUMBER_OF_BYTES : 363623424
_STATISTICS_WRITING_APP : mkvmerge v8.3.0 ('Over the Horizon') 64bit
_STATISTICS_WRITING_DATE_UTC : 2015-10-28 19:31:33
_STATISTICS_TAGS : BPS DURATION NUMBER_OF_FRAMES NUMBER_OF_BYTES

Video
ID : 1
Format : AVC
Format/Info : Advanced Video Codec
Format profile : High@L4.0
Format settings, CABAC : Yes
Format settings, ReFrames : 5 frames
Codec ID : V_MPEG4/ISO/AVC
Duration : 2h 6mn
Bit rate : 4 388 Kbps
Width : 1 920 pixels
Height : 802 pixels
Display aspect ratio : 2.40:1
Frame rate mode : Constant
Frame rate : 24.000 fps
Color space : YUV
Chroma subsampling : 4:2:0
Bit depth : 8 bits
Scan type : Progressive
Bits/(Pixel*Frame) : 0.119
Stream size : 3.87 GiB (90%)
Language : English
Default : Yes
Forced : No
Color primaries : BT.709
Transfer characteristics : BT.709
Matrix coefficients : BT.709

Audio
ID : 2
Format : AC-3
Format/Info : Audio Coding 3
Mode extension : CM (complete main)
Format settings, Endianness : Big
Codec ID : A_AC3
Duration : 2h 6mn
Bit rate mode : Constant
Bit rate : 384 Kbps
Channel(s) : 6 channels
Channel positions : Front: L C R, Side: L R, LFE
Sampling rate : 48.0 KHz
Bit depth : 16 bits
Compression mode : Lossy
Stream size : 347 MiB (8%)
Language : Russian
Default : Yes
Forced : No

Menu
00:00:00.000 : en:Глава 1
00:06:19.000 : en:Глава 2
00:12:30.000 : en:Глава 3
00:18:49.000 : en:Глава 4
00:26:14.000 : en:Глава 5
00:31:39.000 : en:Глава 6
00:38:04.000 : en:Глава 7
00:43:28.000 : en:Глава 8
00:49:38.000 : en:Глава 9
00:56:25.000 : en:Глава 10
01:01:28.000 : en:Глава 11
01:06:52.000 : en:Глава 12
01:11:55.000 : en:Глава 13
01:18:06.000 : en:Глава 14
01:24:28.000 : en:Глава 15
01:29:57.000 : en:Глава 16
01:36:28.000 : en:Глава 17
01:42:32.000 : en:Глава 18
01:50:07.000 : en:Глава 19
01:55:50.000 : en:Глава 20

Свернуть

Скриншоты
Изображение
Изображение
Изображение
Изображение
Свернуть
Изображение


Изображение Изображение
Не в сети
Профиль  
 Добавлено: 2015-11-03 21:53 (спустя 5 дней)
Бог Формулы-1
Аватара пользователя
Стаж: 8 лет
Сообщений: 306
Спасибок: 49
Лайков: 65
Первая переправа понравилась. Ву один из немногих, чьи фильмы можно смотреть не дожидаясь рейтингов и отзывов.
Не в сети
Профиль  
Начать новую темуОтветить на тему  [ Сообщений: 2 ] 
Вы не можете начинать темы
Вы не можете отвечать на сообщения
Вы не можете редактировать свои сообщения
Вы не можете удалять свои сообщения