Правила форума

  • В этом разделе создание новых тем Запрещено.
  • Для создания новых тем пользуйтесь Корневым разделом DVD и HD фильмы.
Начать новую темуОтветить на тему  [ 1 сообщение ] 
Торрент файл
Размер: 13.45 GB • Зарегистрирован: 11 месяцев • Статус: Проверено
Скачан: 125 раз • Желающих скачать: 0 • Поблагодарили: 25 раз
 Раздают: 2  |  0 KB/s  ]   Качают: 0  |  0 KB/s  ] 
Сообщения
 Добавлено: 2015-12-11 07:32
DVD Release Group
Аватара пользователя
Стаж: 7 лет 1 месяц
Сообщений: 3541
Спасибок: 246607
Лайков: 1016
Перевозчик: Наследие

The Transporter Refueled


Изображение


Год выпуска: 2015
Страна: Франция, Китай
Жанр: Боевик, триллер, криминал
Продолжительность: 01:35:54
Перевод: Профессиональный (полное дублирование)
Субтитры: Английские, испанские, румынские
Режиссер: Камиль Деламарр
В ролях: Эд Скрейн, Рэй Стивенсон, Лоан Шабаноль, Габриэлла Райт, Татьяна Пайкович, Венься Ю, Радивойе Буквич, Ноэми Ленуар, Юрий Колокольников, Ленн Кудрявицки
Описание: Фрэнк Мартин — самый высококвалифицированный перевозчик, которого только можно нанять за деньги. Ставки выше, технологии поднялись на более высокий уровень, но правила те же: никогда не изменять условия сделки, никаких имен и никогда не открывать груз.
Когда Фрэнка нанимает хитроумная красотка Анна и ее три очаровательные сообщницы, он быстро выясняет, что его водят за нос. Анна и ее команда похитили его отца, чтобы заставить Фрэнка помочь им разобраться с группой безжалостных торговцев людьми.
Изображение Изображение
Качество: BDRip 1080p
Формат: MKV
Видео кодек: H.264
Аудио кодек: DTS
Видео: 1920x800 23.98fps 16700kbps
Аудио:
Аудио Rus: 48kHz 6ch 1510Kbps
Аудио Eng: 48kHz 6ch 1510Kbps
"MediaInfo"
Формат : Matroska
Версия формата : Version 2
Размер файла : 13,4 Гбайт
Продолжительность : 1 ч. 35 м.
Общий поток : 20,1 Мбит/сек
Название фильма : The Transporter Refueled (2015) - Release for HDCLUB
Дата кодирования : UTC 2015-12-10 19:02:10
Программа кодирования : mkvmerge v5.7.0 ('The Whirlwind') built on Jul 8 2012 20:08:51
Библиотека кодирования : libebml v1.2.3 + libmatroska v1.3.0

Видео
Идентификатор : 1
Формат : AVC
Формат/Информация : Advanced Video Codec
Профиль формата : High@L4.1
Параметр CABAC формата : Да
Параметр ReFrames формата : 5 кадров
Идентификатор кодека : V_MPEG4/ISO/AVC
Продолжительность : 1 ч. 35 м.
Битрейт : 16,7 Мбит/сек
Ширина : 1920 пикселей
Высота : 800 пикселей
Соотношение сторон : 2,40:1
Режим частоты кадров : Постоянный
Частота кадров : 23,976 кадра/сек
Цветовое пространство : YUV
Субдискретизация насыщенности : 4:2:0
Битовая глубина : 8 бит
Тип развёртки : Прогрессивная
Бит/(Пиксели*Кадры) : 0.452
Размер потока : 11,2 Гбайт (83%)
Библиотека кодирования : x264 core 148 r2638 7599210
Настройки программы : cabac=1 / ref=5 / deblock=1:-3:-3 / analyse=0x3:0x133 / me=umh / subme=10 / psy=1 / psy_rd=0.92:0.00 / mixed_ref=1 / me_range=24 / chroma_me=1 / trellis=2 / 8x8dct=1 / cqm=0 / deadzone=21,11 / fast_pskip=0 / chroma_qp_offset=-2 / threads=12 / lookahead_threads=2 / sliced_threads=0 / nr=0 / decimate=0 / interlaced=0 / bluray_compat=0 / constrained_intra=0 / bframes=9 / b_pyramid=2 / b_adapt=2 / b_bias=0 / direct=3 / weightb=1 / open_gop=0 / weightp=2 / keyint=250 / keyint_min=23 / scenecut=40 / intra_refresh=0 / rc_lookahead=60 / rc=crf / mbtree=0 / crf=17.4 / qcomp=0.70 / qpmin=0 / qpmax=69 / qpstep=4 / vbv_maxrate=62500 / vbv_bufsize=78125 / crf_max=0.0 / nal_hrd=none / filler=0 / ip_ratio=1.30 / pb_ratio=1.20 / aq=3:0.83
Язык : English
Default : Да
Forced : Нет
Коэффициенты матрицы : BT.709

Аудио #1
Идентификатор : 2
Формат : DTS
Формат/Информация : Digital Theater Systems
Режим : 16
Параметр Endianness формата : Big
Идентификатор кодека : A_DTS
Продолжительность : 1 ч. 35 м.
Вид битрейта : Постоянный
Битрейт : 1510 Кбит/сек
Каналы : 6 каналов
Расположение каналов : Front: L C R, Side: L R, LFE
Частота : 48,0 КГц
Битовая глубина : 24 бит
Метод сжатия : С потерями
Размер потока : 1,01 Гбайт (8%)
Язык : Russian
Default : Да
Forced : Нет

Аудио #2
Идентификатор : 3
Формат : DTS
Формат/Информация : Digital Theater Systems
Режим : 16
Параметр Endianness формата : Big
Идентификатор кодека : A_DTS
Продолжительность : 1 ч. 35 м.
Вид битрейта : Постоянный
Битрейт : 1509 Кбит/сек
Каналы : 6 каналов
Расположение каналов : Front: L C R, Side: L R, LFE
Частота : 48,0 КГц
Битовая глубина : 24 бит
Метод сжатия : С потерями
Размер потока : 1,01 Гбайт (8%)
Язык : English
Default : Нет
Forced : Нет

Текст #1
Идентификатор : 4
Формат : UTF-8
Идентификатор кодека : S_TEXT/UTF8
Идентификатор кодека/Информация : UTF-8 Plain Text
Заголовок : SDH
Язык : English
Default : Нет
Forced : Нет

Текст #2
Идентификатор : 5
Формат : UTF-8
Идентификатор кодека : S_TEXT/UTF8
Идентификатор кодека/Информация : UTF-8 Plain Text
Язык : English
Default : Нет
Forced : Нет

Текст #3
Идентификатор : 6
Формат : UTF-8
Идентификатор кодека : S_TEXT/UTF8
Идентификатор кодека/Информация : UTF-8 Plain Text
Язык : Spanish
Default : Нет
Forced : Нет

Текст #4
Идентификатор : 7
Формат : UTF-8
Идентификатор кодека : S_TEXT/UTF8
Идентификатор кодека/Информация : UTF-8 Plain Text
Заголовок : Forced
Язык : English
Default : Нет
Forced : Нет

Текст #5
Идентификатор : 8
Формат : UTF-8
Идентификатор кодека : S_TEXT/UTF8
Идентификатор кодека/Информация : UTF-8 Plain Text
Язык : Romanian
Default : Нет
Forced : Нет

Меню
00:00:00.000 : en:Chapter 01
00:03:29.042 : en:Chapter 02
00:06:43.278 : en:Chapter 03
00:11:22.599 : en:Chapter 04
00:15:01.651 : en:Chapter 05
00:20:21.512 : en:Chapter 06
00:24:49.905 : en:Chapter 07
00:27:03.664 : en:Chapter 08
00:29:29.643 : en:Chapter 09
00:32:56.600 : en:Chapter 10
00:35:48.605 : en:Chapter 11
00:37:35.879 : en:Chapter 12
00:41:53.845 : en:Chapter 13
00:48:09.887 : en:Chapter 14
00:52:44.536 : en:Chapter 15
00:57:42.793 : en:Chapter 16
01:01:01.658 : en:Chapter 17
01:06:43.541 : en:Chapter 18
01:10:50.204 : en:Chapter 19
01:13:06.048 : en:Chapter 20
01:18:27.244 : en:Chapter 21
01:20:18.397 : en:Chapter 22
01:21:53.408 : en:Chapter 23
01:24:16.885 : en:Chapter 24
01:27:00.132 : en:Chapter 25
01:28:45.070 : en:Chapter 26
01:30:07.110 : en:Chapter 27
Свернуть

"Скриншоты"
Изображение
Изображение
Изображение
Свернуть
 dVision нравится это.
Не в сети
Профиль  
Начать новую темуОтветить на тему  [ 1 сообщение ] 
Вы не можете начинать темы
Вы не можете отвечать на сообщения
Вы не можете редактировать свои сообщения
Вы не можете удалять свои сообщения