Правила форума

  • В этом разделе создание новых тем Запрещено.
  • Для создания новых тем пользуйтесь Корневым разделом DVD и HD фильмы.
Начать новую темуОтветить на тему  [ Сообщений: 7 ] 
Торрент файл
Размер: 9.3 GB • Зарегистрирован: 5 лет 1 месяц • Статус: Проверено
Скачан: 848 раз • Желающих скачать: 0 • Поблагодарили: 150 раз
 Раздают: 3  |  0 KB/s  ]   Качают: 0  |  0 KB/s  ] 
Сообщения
 Добавлено: 2011-10-15 23:35
Руководитель релиз-группы
Аватара пользователя
Стаж: 8 лет 6 месяцев
Возраст: 25
Сообщений: 7578
Спасибок: 51913
Лайков: 14
Первый мститель / Captain America: The First Avenger


«In a time of darkness, despair and disillusionment, a hero comes to give hope.»



Изображение
Год выпуска: 2011
Страна: США
Жанр: фантастика, боевик, триллер, приключения
Продолжительность:
02:04:09

Перевод: Профессиональный (полное дублирование) [Лицензия]

Режиссер: Джо Джонстон
Сценарий: Кристофер Маркус, Стефен МакФили, Джо Саймон, Джек Кирби
Продюсер: Амир Мадани, Кевин Файги, Виктория Алонсо, Стэн Ли, Дэвид Майсел
Оператор: Шелли Джонсон
Композитор: Алан Сильвестри

В ролях:
Крис Эванс, Хейли Этвелл, Себастиан Стэн, Томми Ли Джонс, Хьюго Уивинг, Доминик Купер, Ричард Армитэдж, Стенли Туччи, Сэмюэл Л. Джексон, Тоби Джонс, Нил МакДонаф, Дерек Люк

Описание: Стив Роджерс добровольно соглашается принять участие в эксперименте, который превратит его в супер солдата, известного как Первый мститель. Роджерс вступает в вооруженные силы США вместе с Баки Барнсом и Пегги Картер, чтобы бороться с враждебной организацией ГИДРА, которой управляет безжалостный Красный Череп.







Релиз: Изображение


Качество: BDRip 1080p
Формат: BDMV
Видео: x264 8569 kb/s 1920x816p / 23.976 fps / High Profile 4.1
Аудио: Russian: AC3, 640 kb/s (6 ch) 48 kHz / English: DTS, 1510 kb/s (6 ch) 48 kHz
Субтитры: Russian, English



MediaInfo
General
UniqueID : 203663823570044280894869506574152564712 (0x993839C38E48FBE3A0D0B88B5C72FFE8)
Complete name : Pervij.mstitel.2011.D.BDRip.1080p.UNIONGANG.mkv
Format : Matroska
File size : 9.30 GiB
Duration : 2h 4mn
Overall bit rate : 10.7 Mbps
Movie name : Captain America: The First Avenger (2011) Release for Uniongang.tv
Encoded date : UTC 2011-10-15 18:14:23
Writing application : mkvmerge v4.9.1 ('Ich will') сборка от Jul 11 2011 23:53:15
Writing library : libebml v1.2.1 + libmatroska v1.1.1

Video
ID : 1
Format : AVC
Format/Info : Advanced Video Codec
Format profile : High@L4.1
Format settings, CABAC : Yes
Format settings, ReFrames : 5 frames
Codec ID : V_MPEG4/ISO/AVC
Duration : 2h 4mn
Bit rate : 8 569 Kbps
Width : 1 920 pixels
Height : 816 pixels
Display aspect ratio : 2.35:1
Frame rate : 23.976 fps
Color space : YUV
Chroma subsampling : 4:2:0
Bit depth : 8 bits
Scan type : Progressive
Bits/(Pixel*Frame) : 0.228
Stream size : 7.25 GiB (78%)
Title : Captain America: The First Avenger (2011) Release for Uniongang.tv
Writing library : x264 core 118 r2085 8a62835
Encoding settings : cabac=1 / ref=5 / deblock=1:0:0 / analyse=0x3:0x113 / me=umh / subme=7 / psy=1 / psy_rd=1.00:0.15 / mixed_ref=1 / me_range=16 / chroma_me=1 / trellis=1 / 8x8dct=1 / cqm=0 / deadzone=21,11 / fast_pskip=0 / chroma_qp_offset=-3 / threads=12 / sliced_threads=0 / nr=0 / decimate=1 / interlaced=0 / bluray_compat=0 / constrained_intra=0 / bframes=3 / b_pyramid=2 / b_adapt=1 / b_bias=0 / direct=1 / weightb=1 / open_gop=0 / weightp=2 / keyint=250 / keyint_min=23 / scenecut=40 / intra_refresh=0 / rc_lookahead=40 / rc=2pass / mbtree=1 / bitrate=8569 / ratetol=1.0 / qcomp=0.60 / qpmin=0 / qpmax=69 / qpstep=4 / cplxblur=20.0 / qblur=0.5 / ip_ratio=1.40 / aq=1:1.00
Language : English

Audio #1
ID : 2
Format : AC-3
Format/Info : Audio Coding 3
Mode extension : CM (complete main)
Codec ID : A_AC3
Duration : 2h 4mn
Bit rate mode : Constant
Bit rate : 640 Kbps
Channel(s) : 6 channels
Channel positions : Front: L C R, Side: L R, LFE
Sampling rate : 48.0 KHz
Bit depth : 16 bits
Compression mode : Lossy
Stream size : 569 MiB (6%)
Title : DD 5.1 @ 640 Kbps - Dub, BD CEE
Language : Russian

Audio #2
ID : 3
Format : DTS
Format/Info : Digital Theater Systems
Codec ID : A_DTS
Duration : 2h 4mn
Bit rate mode : Constant
Bit rate : 1 510 Kbps
Channel(s) : 6 channels
Channel positions : Front: L C R, Side: L R, LFE
Sampling rate : 48.0 KHz
Bit depth : 24 bits
Compression mode : Lossy
Stream size : 1.31 GiB (14%)
Title : DTS 5.1 @ 1536 Kbps
Language : English

Text #1
ID : 4
Format : UTF-8
Codec ID : S_TEXT/UTF8
Codec ID/Info : UTF-8 Plain Text
Language : Russian

Text #2
ID : 5
Format : UTF-8
Codec ID : S_TEXT/UTF8
Codec ID/Info : UTF-8 Plain Text
Language : English
Свернуть
Скриншоты

Изображение
Изображение
Изображение
Свернуть

Не в сети
Профиль  
 Добавлено: 2011-10-24 19:00 (спустя 8 дней)
Аватара пользователя
Стаж: 7 лет 11 месяцев
Сообщений: 786
Спасибок: 25
Лайков: 9
СПАСИБО ЗА ФИЛЬМ !!!
Не в сети
Профиль  
 Добавлено: 2011-11-04 11:48 (спустя 10 дней)
Стаж: 7 лет 9 месяцев
Сообщений: 19
Спасибок: 16
Спасибо!
Не в сети
Профиль  
 Добавлено: 2011-11-06 19:48 (спустя 2 дня 7 часов)
Стаж: 8 лет 4 месяца
Сообщений: 43
Спасибок: 39
Лайков: 1
Не стоит внимания)))Не более чем обычный американский простой боевик.
Не в сети
Профиль  
 Добавлено: 2012-03-30 11:41 (спустя 4 месяца 23 дня)
Аватара пользователя
Стаж: 8 лет 11 месяцев
Возраст: 27
Сообщений: 721
Спасибок: 5528
Лайков: 1
хороший фильмец, мне понравился :)
_________________
Изображение
Не в сети
Профиль  
 Добавлено: 2012-04-21 22:12 (спустя 22 дня)
Аватара пользователя
Стаж: 8 лет
Сообщений: 47
мне фильм понравился
Не в сети
Профиль  
 Добавлено: 2014-01-17 11:00 (спустя 1 год 8 месяцев)
Аватара пользователя
Стаж: 7 лет 7 месяцев
Сообщений: 53
Спасибок: 1
Лайков: 1
раздайте!!!! плиз)))
Не в сети
Профиль  
Начать новую темуОтветить на тему  [ Сообщений: 7 ] 
Вы не можете начинать темы
Вы не можете отвечать на сообщения
Вы не можете редактировать свои сообщения
Вы не можете удалять свои сообщения