Правила форума

  • В этом разделе создание новых тем Запрещено.
  • Для создания новых тем пользуйтесь Корневым разделом DVD и HD фильмы.
Начать новую темуОтветить на тему  [ Сообщений: 6 ] 
Торрент файл
Размер: 15.56 GB • Зарегистрирован: 3 года 11 месяцев • Статус: Проверено
Скачан: 561 раз • Желающих скачать: 0 • Поблагодарили: 129 раз
 Раздают: 0  |  0 KB/s  ]   Качают: 0  |  0 KB/s  ] 
 Полного источника не было 17 дней 
Сообщения
 Добавлено: 2012-12-14 07:17
Модератор
Аватара пользователя
Стаж: 6 лет 10 месяцев
Возраст: 33
Сообщений: 5908
Спасибок: 61265
Лайков: 3540
Изображение

Петля времени
Looper


Год выпуска: 2012
Страна: США, Китай
Слоган: «В плену будущего. В плену прошлого»
Жанр: фантастика, боевик, триллер, криминал
Продолжительность: 01:58:53
Перевод: Профессиональный (полное дублирование) [лицензия]
Режиссер: Райан Джонсон
Сценарий: Райан Джонсон
Продюсер: Рэм Бергман, Джеймс Д. Штерн, Лукас Смит, Кристофер С. Чен, Джули Голдштейн
Оператор: Стив Йедлин
Композитор: Натан Джонсон
В ролях: Джозеф Гордон-Левитт, Брюс Уиллис, Эмили Блант, Джефф Дэниелс, Ной Сеган, Пирс Гэнон, Пол Дано, Пайпер Перабо, Квинг Ксу, Трейси Томс, Фрэнк Бреннан, Гаррет Диллахант
Бюджет: $30 000 000
Сборы в США: $66 179 790
Сборы в России: $5 091 864
Сборы в мире: $166 214 743
Мировая премьера: 6 сентября 2012
Релиз на DVD: 29 ноября 2012, «Новый Диск», «New Dream media»
Описание: В недалеком будущем, где стали возможны путешествия во времени, некая корпорация убирает нежелательных людей, отправляя их в прошлое в пластиковых пакетах. Задача принимающей стороны - убить жертву, стерев тем самым несчастного из истории. Все идет гладко до тех пор, пока главный герой не распаковывает очередной пакет, обнаруживая в нем самого себя из будущего.

Изображение User Rating: 7.319 (30 299)
Изображение User Rating: 7.80 (99 711)
MPAA: R - Лицам до 17 лет обязательно присутствие взрослого
Раздача группы: Изображение
Качество: BDRip, 1080p HDChina
Формат: Matroska
Видео: MPEG-4 AVC, 15.5 Mбит/с, 1920x816
Аудио №1: Русский, украинский (AC3, 6 ch, 448 Кбит/с), английский (DTS, 6 ch, 1510 Кбит/с; AC3, 6 ch, 640 Кбит/с), (AC3, 2 ch, 192 Кбит/с)
mediainfo
General
Unique ID : 189100050457576292113019348274685579053 (0x8E43584FB36A6608A4341202F94A8F2D)
Complete name : D:\Looper 2012 1080p BluRay x264-Talian-.mkv
Format : Matroska
Format version : Version 2
File size : 15.6 GiB
Duration : 1h 58mn
Overall bit rate : 18.7 Mbps
Movie name : -Talian-
Encoded date : UTC 2012-12-13 17:15:44
Writing application : mkvmerge v5.7.0 ('The Whirlwind') built on Jul 8 2012 20:08:51
Writing library : libebml v1.2.3 + libmatroska v1.3.0

Video
ID : 1
Format : AVC
Format/Info : Advanced Video Codec
Format profile : High@L4.1
Format settings, CABAC : Yes
Format settings, ReFrames : 5 frames
Codec ID : V_MPEG4/ISO/AVC
Duration : 1h 58mn
Bit rate : 15.5 Mbps
Width : 1 920 pixels
Height : 816 pixels
Display aspect ratio : 2.35:1
Frame rate : 23.976 fps
Color space : YUV
Chroma subsampling : 4:2:0
Bit depth : 8 bits
Scan type : Progressive
Bits/(Pixel*Frame) : 0.413
Stream size : 12.6 GiB (81%)
Title : Looper.2012.1080p.Bluray.x264.DTS-HDChina
Writing library : x264 core 129 r2230+696+36 4446aa2 tMod+MixAQ [8-bit@4:2:0 X86_64]
Encoding settings : cabac=1 / ref=5 / deblock=1:-3:-3 / analyse=0x3:0x113 / me=umh / subme=11 / psy=1 / fade_compensate=0.00 / psy_rd=1.10:0.00 / mixed_ref=1 / me_range=48 / chroma_me=1 / trellis=2 / 8x8dct=1 / cqm=0 / deadzone=21,11 / fast_pskip=0 / chroma_qp_offset=-2 / threads=18 / lookahead_threads=3 / sliced_threads=0 / nr=0 / decimate=0 / interlaced=0 / bluray_compat=0 / constrained_intra=0 / fgo=0 / bframes=8 / b_pyramid=2 / b_adapt=2 / b_bias=0 / direct=3 / weightb=1 / open_gop=0 / weightp=2 / keyint=240 / keyint_min=24 / scenecut=40 / intra_refresh=0 / rc_lookahead=240 / rc=2pass / mbtree=1 / bitrate=15500 / ratetol=1.0 / qcomp=0.70 / qpmin=0 / qpmax=69 / qpstep=4 / cplxblur=20.0 / qblur=0.5 / ip_ratio=1.10 / aq=4 / aq-strength=0.95 / aq-sensitivity=10.00 / aq-ifactor=1.00 / aq-pfactor=1.00 / aq-bfactor=1.00 / aq2=0
Language : English
Default : No
Forced : No

Audio #1
ID : 2
Format : AC-3
Format/Info : Audio Coding 3
Mode extension : CM (complete main)
Format settings, Endianness : Big
Codec ID : A_AC3
Duration : 1h 58mn
Bit rate mode : Constant
Bit rate : 448 Kbps
Channel(s) : 6 channels
Channel positions : Front: L C R, Side: L R, LFE
Sampling rate : 48.0 KHz
Bit depth : 16 bits
Compression mode : Lossy
Stream size : 381 MiB (2%)
Title : DUB-R5
Language : Russian
Default : Yes
Forced : No

Audio #2
ID : 3
Format : AC-3
Format/Info : Audio Coding 3
Mode extension : CM (complete main)
Format settings, Endianness : Big
Codec ID : A_AC3
Duration : 1h 58mn
Bit rate mode : Constant
Bit rate : 448 Kbps
Channel(s) : 6 channels
Channel positions : Front: L C R, Side: L R, LFE
Sampling rate : 48.0 KHz
Bit depth : 16 bits
Compression mode : Lossy
Stream size : 381 MiB (2%)
Title : DUB-R5
Language : Ukrainian
Default : No
Forced : No

Audio #3
ID : 4
Format : DTS
Format/Info : Digital Theater Systems
Codec ID : A_DTS
Duration : 1h 58mn
Bit rate mode : Constant
Bit rate : 1 510 Kbps
Channel(s) : 6 channels
Channel positions : Front: L C R, Side: L R, LFE
Sampling rate : 48.0 KHz
Bit depth : 24 bits
Compression mode : Lossy
Stream size : 1.25 GiB (8%)
Title : Original
Language : English
Default : No
Forced : No

Audio #4
ID : 5
Format : AC-3
Format/Info : Audio Coding 3
Mode extension : CM (complete main)
Format settings, Endianness : Big
Codec ID : A_AC3
Duration : 1h 58mn
Bit rate mode : Constant
Bit rate : 640 Kbps
Channel(s) : 6 channels
Channel positions : Front: L C R, Side: L R, LFE
Sampling rate : 48.0 KHz
Bit depth : 16 bits
Compression mode : Lossy
Stream size : 544 MiB (3%)
Title : Descriptive
Language : English
Default : No
Forced : No

Audio #5
ID : 6
Format : AC-3
Format/Info : Audio Coding 3
Format profile : Dolby Digital
Mode extension : CM (complete main)
Format settings, Endianness : Big
Codec ID : A_AC3
Duration : 1h 58mn
Bit rate mode : Constant
Bit rate : 192 Kbps
Channel(s) : 2 channels
Channel positions : Front: L R
Sampling rate : 48.0 KHz
Bit depth : 16 bits
Compression mode : Lossy
Stream size : 163 MiB (1%)
Title : Commentary
Language : English
Default : No
Forced : No

Text #1
ID : 7
Format : UTF-8
Codec ID : S_TEXT/UTF8
Codec ID/Info : UTF-8 Plain Text
Title : Sub-Groby
Language : Russian
Default : No
Forced : No

Text #2
ID : 8
Format : UTF-8
Codec ID : S_TEXT/UTF8
Codec ID/Info : UTF-8 Plain Text
Title : SubForced
Language : English
Default : No
Forced : No

Text #3
ID : 9
Format : UTF-8
Codec ID : S_TEXT/UTF8
Codec ID/Info : UTF-8 Plain Text
Title : Sub
Language : English
Default : No
Forced : No

Text #4
ID : 10
Format : UTF-8
Codec ID : S_TEXT/UTF8
Codec ID/Info : UTF-8 Plain Text
Title : Sub-SDH
Language : English
Default : No
Forced : No

Text #5
ID : 11
Format : UTF-8
Codec ID : S_TEXT/UTF8
Codec ID/Info : UTF-8 Plain Text
Title : Sub-Commentary
Language : English
Default : No
Forced : No

Menu
00:00:00.000 : en:00:00:00.000
00:07:27.447 : en:00:07:27.447
00:13:31.686 : en:00:13:31.686
00:21:22.490 : en:00:21:22.490
00:26:48.106 : en:00:26:48.106
00:31:51.201 : en:00:31:51.201
00:41:28.403 : en:00:41:28.403
00:49:33.429 : en:00:49:33.429
00:54:10.414 : en:00:54:10.414
01:00:35.006 : en:01:00:35.006
01:08:09.919 : en:01:08:09.919
01:15:23.352 : en:01:15:23.352
01:23:57.741 : en:01:23:57.741
01:34:25.869 : en:01:34:25.869
01:41:04.433 : en:01:41:04.433
01:46:29.383 : en:01:46:29.383
Свернуть
"Знаете ли Вы, что..."
  • Идея фильма пришла к Райану Джонсону сразу после окончания съёмок фильма «Кирпич», и так как он хотел снова работать с Гордон-Левиттом, то писал роль специально для него, даже дав главному герою имя актёра.
Свернуть
Скриншоты

Изображение
Изображение
Изображение
Изображение
Свернуть
_________________
ИзображениеИзображение Изображение
Изображение
 tany1984 и di-ys1 нравится это.
Не в сети
Профиль  
 Добавлено: 2012-12-18 00:11 (спустя 3 дня)
Аватара пользователя
Стаж: 8 лет 2 месяца
Сообщений: 70
Спасибок: 41
Аудио №1: Русский, украинский (AC3, 6 ch, 448 Кбит/с), английский (DTS, 6 ch, 1510 Кбит/с; AC3, 6 ch, 640 Кбит/с), (AC3, 2 ch, 192 Кбит/с)
ничего не понятно
переоформили бы

а за фильм спасибо. он хорош
Не в сети
Профиль  
 Добавлено: 2012-12-18 20:15 (спустя 20 часов)
Стаж: 7 лет 2 месяца
Сообщений: 81
Он мог в конце фильма просто отстрелить себе руки все бы остались живы
Не в сети
Профиль  
 Добавлено: 2013-01-12 16:59 (спустя 24 дня)
Стаж: 3 года 11 месяцев
Сообщений: 101
Спасибо)))
Не в сети
Профиль  
 Добавлено: 2013-01-13 19:02 (спустя 1 день 2 часа)
Кинокомментатор
Аватара пользователя
Стаж: 9 лет 1 месяц
Сообщений: 1332
Лайков: 54
а что фильмы то новые перестали выходить?:( одно старьё уже посмотренное:( эту Петлю я уже месяц назад наверное смотрел!)
_________________
Я ВКонтакте
Не в сети
Профиль  
 Добавлено: 2014-02-23 20:25 (спустя 1 год 1 месяц)
Аватара пользователя
Стаж: 4 года 1 месяц
Возраст: 28
Сообщений: 25
скорости :(
Не в сети
Профиль  
Начать новую темуОтветить на тему  [ Сообщений: 6 ] 
Вы не можете начинать темы
Вы не можете отвечать на сообщения
Вы не можете редактировать свои сообщения
Вы не можете удалять свои сообщения