Правила форума

  • В этом разделе создание новых тем Запрещено.
  • Для создания новых тем пользуйтесь Корневым разделом DVD и HD фильмы.
Начать новую темуОтветить на тему  [ Сообщений: 2 ] 
Торрент файл
Размер: 8.56 GB • Зарегистрирован: 3 года 3 месяца • Статус: Проверено
Скачан: 5 раз • Желающих скачать: 0 • Поблагодарили: 5 раз
 Раздают: 0  |  0 KB/s  ]   Качают: 0  |  0 KB/s  ] 
 Полного источника не было 2 года 
Сообщения
 Добавлено: 2013-08-28 18:20
Модератор релиз-группы
Аватара пользователя
Стаж: 7 лет 8 месяцев
Возраст: 29
Сообщений: 9789
Спасибок: 23732
Лайков: 103
Изображение

Певец на свадьбе
The Wedding Singer


Год выпуска: 1997
Страна: США
Слоган: «Before the internet, Before cell phones, Before roller-blades, There was a time... 1985. Don't pretend you don't remember.»
Жанр: мелодрама, комедия, музыка
Продолжительность: 01:40:10
Перевод: Профессиональный (многоголосый, закадровый)
Авторский (Гаврилов Андрей)

Режиссер: Фрэнк Корачи
Сценарий: Тим Херлихи
Продюсер: Джек Джиррапуто, Роберт Симондз, Ричард Бренер, Брэд Грэй, Мишель Холдсворт
Оператор: Тим Сёрстедт
Композитор: Тедди Кастелуччи
В ролях: Адам Сэндлер, Дрю Бэрримор, Кристин Тейлор, Аллен Коверт, Мэттью Глэйв, Эллен Альбертини Дау, Анджела Фезерстоун, Алексис Аркетт, Кристина Пиклз, Джоди Телен, Фрэнк Сиверо, Патрик МакТавиш
Бюджет: $18 000 000
Сборы в США: $80 245 725
Сборы в мире: $123 306 987
Мировая премьера: 13 февраля 1998
Релиз на DVD: 3 апреля 2003 «West Video»
Описание: Во время свадебного торжества солист оркестра Робби Харт знакомится с начинающей официанткой Джулией. Выясняется, что каждый из них готовится к собственной свадьбе.
Однако, волею случая женитьба Робби расстраивается, а Джулия просит его помощь в организации своей свадьбы. И еще она просит Робби научить ее правильно целоваться...


Изображение User Rating: 7.012 (5993)
Изображение User Rating: 6.80 (75 802)
MPAA: PG-13 - Детям до 13 лет просмотр не желателен
Раздача группы: Изображение
Качество: BDRip, 1080p
Формат: MKV
Видео: AVC; 1920x1036 (1.853); 9579 Kbps; 23,976 fps; 0,201 bit/pixel
Аудио №1: русский; AC3; 448 Kbps; CBR; 6 ch
Аудио №2: русский; AC3; 448 Kbps; CBR; 6 ch
Аудио №3: английский; DTS; 1510 Kbps; CBR; 6 ch; 24 bit

Субтитры №1: русские
Субтитры №2: английские

mediainfo
Общее
Уникальный идентификатор : 251554334089906809557603500011057782289 (0xBD3F9A3B3D2A1613B823F15BB33F1E11)
Полное имя : D:\TORRENT\Pevec.na.svadbe.1998.x264.BDRip.mkv
Формат : Matroska
Размер файла : 8,56 Гбайт
Продолжительность : 1 ч. 40 м.
Общий поток : 12,2 Мбит/сек
Название фильма : The Wedding Singer (1998) -=GP=-
Дата кодирования : UTC 2009-04-13 13:59:21
Программа кодирования : mkvmerge v2.5.1 ('He Wasn't There') built on Feb 22 2009 18:19:47
Библиотека кодирования : libebml v0.7.7 + libmatroska v0.8.1

Видео
Идентификатор : 1
Формат : AVC
Формат/Информация : Advanced Video Codec
Профиль формата : High@L4.1
Параметр CABAC формата : Да
Параметр ReFrames формата : 4 кадра
Идентификатор кодека : V_MPEG4/ISO/AVC
Продолжительность : 1 ч. 40 м.
Битрейт : 9820 Кбит/сек
Ширина : 1920 пикс.
Высота : 1036 пикс.
Соотношение сторон : 1,853
Частота кадров : 23,976 кадр/сек
Цветовое пространство : YUV
Подвыборка цветности : 4:2:0
Битовая глубина : 8 бит
Тип развёртки : Прогрессивная
Бит/(Пиксели*Кадры) : 0.206
Размер потока : 6,70 Гбайт (78%)
Заголовок : The Wedding Singer (1998) -=GP=-
Библиотека кодирования : x264 core 67 r1127M 8d82fec
Настройки программы : cabac=1 / ref=4 / deblock=1:-3:-3 / analyse=0x3:0x113 / me=umh / subme=8 / psy_rd=1.3:0.6 / mixed_ref=1 / me_range=32 / chroma_me=1 / trellis=1 / 8x8dct=1 / cqm=2 / deadzone=6,4 / chroma_qp_offset=-8 / threads=6 / nr=0 / decimate=1 / mbaff=0 / bframes=3 / b_pyramid=1 / b_adapt=1 / b_bias=0 / direct=3 / wpredb=1 / keyint=250 / keyint_min=25 / scenecut=40 / rc=2pass / bitrate=9820 / ratetol=1.0 / qcomp=1.00 / qpmin=10 / qpmax=51 / qpstep=4 / cplxblur=20.0 / qblur=0.5 / ip_ratio=1.40 / pb_ratio=1.30 / aq=1:0.50 / zones=138010,144111,b=0.3
Язык : English

Аудио #1
Идентификатор : 2
Формат : AC-3
Формат/Информация : Audio Coding 3
Расширение режима : CM (complete main)
Идентификатор кодека : A_AC3
Продолжительность : 1 ч. 40 м.
Вид битрейта : Постоянный
Битрейт : 448 Кбит/сек
Каналы : 6 каналов
Расположение каналов : Front: L C R, Side: L R, LFE
Частота : 48,0 КГц
Битовая глубина : 16 бит
Метод сжатия : С потерями
Размер потока : 321 Мбайт (4%)
Заголовок : DD 5.1 (авторский А.Гаврилов)
Язык : Russian

Аудио #2
Идентификатор : 3
Формат : AC-3
Формат/Информация : Audio Coding 3
Расширение режима : CM (complete main)
Идентификатор кодека : A_AC3
Продолжительность : 1 ч. 40 м.
Вид битрейта : Постоянный
Битрейт : 448 Кбит/сек
Каналы : 6 каналов
Расположение каналов : Front: L C R, Side: L R, LFE
Частота : 48,0 КГц
Битовая глубина : 16 бит
Метод сжатия : С потерями
Размер потока : 321 Мбайт (4%)
Заголовок : DD 5.1 (Многоголосый)
Язык : Russian

Аудио #3
Идентификатор : 4
Формат : DTS
Формат/Информация : Digital Theater Systems
Идентификатор кодека : A_DTS
Продолжительность : 1 ч. 40 м.
Вид битрейта : Постоянный
Битрейт : 1510 Кбит/сек
Каналы : 6 каналов
Расположение каналов : Front: L C R, Side: L R, LFE
Частота : 48,0 КГц
Битовая глубина : 24 бит
Метод сжатия : С потерями
Размер потока : 1,06 Гбайт (12%)
Заголовок : DTS 5.1
Язык : English

Текст #1
Идентификатор : 5
Формат : UTF-8
Идентификатор кодека : S_TEXT/UTF8
Идентификатор кодека/Информация : UTF-8 Plain Text
Заголовок : RUS (для сцен без голосового перевода)
Язык : Russian

Текст #2
Идентификатор : 6
Формат : UTF-8
Идентификатор кодека : S_TEXT/UTF8
Идентификатор кодека/Информация : UTF-8 Plain Text
Заголовок : ENG
Язык : English


Свернуть
"Знаете ли Вы, что..."
  • В данном фильме состоялось второе камео Кевина Нилона в картинах с участием Адама Сэндлера. В первый раз он исполнил небольшую роль в «Счастливчике Гилморе» (1996).
  • Кэрри Фишер доводила сценарий до ума, однако её имя не упомянуто в титрах.
  • Время, ушедшее на производство фильма, составило 1,5 года.
  • В одной из сцен Робби кричит Линде: «Сними мою любимую майку с Van Halen, а то ещё чего доброго сглазишь группу, и она распадется. Дэвид Ли Рот покинул группу в 1985. В том же самом году происходят события фильма.
  • Жилет, который Джулия носит на протяжении всего фильма, принадлежит Дрю Бэрримор. Когда Фрэнк Корачи, режиссер фильма, увидел её в этом жилете, он предложил ей, чтобы её персонаж носил такой же жилет.
  • Гитара, на которой играет Робби (Адам Сэндлер) во время исполнения «Somebody Kill Me Please», - Gibson ES-335
  • Персонаж «Джордж» основан на Бой Джордже.
  • еще 4 факта
Свернуть
Скриншоты

Изображение
Изображение
Изображение
Изображение
Изображение
Изображение
Изображение
Изображение
Свернуть
Не в сети
Профиль  
 Добавлено: 2013-11-29 17:20 (спустя 3 месяца)
Музыкоед
Аватара пользователя
Стаж: 7 лет 4 месяца
Сообщений: 2111
Лайков: 466
...И Билли Айдол в эпизодах.


Тема поднималась пользователем volkov2009 2013-11-29 17:20.
Не в сети
Профиль  
Начать новую темуОтветить на тему  [ Сообщений: 2 ] 
Вы не можете начинать темы
Вы не можете отвечать на сообщения
Вы не можете редактировать свои сообщения
Вы не можете удалять свои сообщения