Правила форума

  • В этом разделе создание новых тем Запрещено.
  • Для создания новых тем пользуйтесь Корневым разделом DVD и HD фильмы.
Начать новую темуОтветить на тему  [ 1 сообщение ] 
Торрент файл
Размер: 3.16 GB • Зарегистрирован: 2 года 11 месяцев • Статус: Проверено
Скачан: 7 раз • Желающих скачать: 0 • Поблагодарили: 5 раз
 Раздают: 0  |  0 KB/s  ]   Качают: 0  |  0 KB/s  ] 
 Полного источника не было 2 года 
Сообщения
 Добавлено: 2013-12-24 10:21
Аватара пользователя
Стаж: 7 лет 2 месяца
Сообщений: 7167
Спасибок: 82001
Лайков: 2438
Пицца с доставкой / Fat Pizza

Изображение


Год выпуска: 2003
Страна: Австралия
Слоган: «Fast cars, fast chicks, fast food!»
Жанр: боевик, триллер, комедия, криминал, приключения
Продолжительность: 01:33:24
Перевод: Профессиональный (многоголосый закадровый) + Профессиональный (многоголосый закадровый)

Режиссёр: Пол Фенеч
В ролях: Пол Фенеч, Пол Накад, Джон Боксер, Тахир Билгик, Jabba, Мария Венути, Анналиса Браакенсик, Кирсти Ли Аллан, Angry Anderson, Нельсон Аспен
Описание: Первое правило разносчика пиццы: в дом клиента не входить. Второе правило разносчика пиццы: ни при каких обстоятельствах не входить в дом клиента. Третье правило разносчика пиццы: никогда и ни при каких обстоятельствах не входить в дом клиента!

Рокки только сегодня устроился на новую работу и сразу нарушил все три правила. Теперь его преследуют местные бандиты, русская мафия угрожает убить, а все девушки города словно сговорились его не замечать. Кто бы думал, что в жизни разносчика пиццы может быть столько приключений…
Изображение

Качество: BDRip 720p
Формат: MKV
Видео кодек: H264 (AVC)
Аудио кодек: AC3 (Dolby Digital)
Видео: 1 280x720, 25.000 fps, 4 166 Kbps
Аудио #1: 48.0 KHz, 2 ch, 128 Kbps [Профессиональный (многоголосый закадровый)] ТНТ
Аудио #2: 48.0 KHz, 6 ch, 448 Kbps [Профессиональный (многоголосый закадровый)]
Изображение
Скриншоты
Изображение

Изображение

Изображение

Изображение

Изображение

Изображение

Изображение

Изображение
Свернуть
MI
General
Unique ID : 215655292030333296967688644439165505275 (0xA23DB2CE302129F3B59B185355BE0EFB)
Complete name : Пицца с доставкой.2003.mkv
Format : Matroska
Format version : Version 2
File size : 3.16 GiB
Duration : 1h 33mn
Overall bit rate : 4 838 Kbps
Encoded date : UTC 2013-05-22 11:16:13
Writing application : mkvmerge v4.0.0 ('The Stars were mine') сборка от Jun 18 2010 16:54:49
Writing library : libebml v1.0.0 + libmatroska v1.0.0

Video
ID : 1
Format : AVC
Format/Info : Advanced Video Codec
Format profile : High@L4.1
Format settings, CABAC : Yes
Format settings, ReFrames : 5 frames
Codec ID : V_MPEG4/ISO/AVC
Duration : 1h 33mn
Bit rate : 4 260 Kbps
Width : 1 280 pixels
Height : 720 pixels
Display aspect ratio : 16:9
Frame rate : 25.000 fps
Color space : YUV
Chroma subsampling : 4:2:0
Bit depth : 8 bits
Scan type : Progressive
Bits/(Pixel*Frame) : 0.185
Stream size : 2.72 GiB (86%)
Writing library : x264 core 132 r2310 76a5c3a
Encoding settings : cabac=1 / ref=5 / deblock=1:0:0 / analyse=0x3:0x133 / me=umh / subme=7 / psy=1 / psy_rd=1.00:0.00 / mixed_ref=1 / me_range=16 / chroma_me=1 / trellis=1 / 8x8dct=1 / cqm=0 / deadzone=21,11 / fast_pskip=0 / chroma_qp_offset=-2 / threads=18 / lookahead_threads=3 / sliced_threads=0 / nr=0 / decimate=1 / interlaced=0 / bluray_compat=0 / constrained_intra=0 / bframes=3 / b_pyramid=2 / b_adapt=1 / b_bias=0 / direct=1 / weightb=1 / open_gop=0 / weightp=2 / keyint=250 / keyint_min=25 / scenecut=40 / intra_refresh=0 / rc_lookahead=40 / rc=2pass / mbtree=1 / bitrate=4260 / ratetol=1.0 / qcomp=0.60 / qpmin=10 / qpmax=69 / qpstep=4 / cplxblur=20.0 / qblur=0.5 / ip_ratio=1.40 / aq=1:1.00
Language : English
Default : Yes
Forced : No

Audio #1
ID : 2
Format : AC-3
Format/Info : Audio Coding 3
Mode extension : CM (complete main)
Format settings, Endianness : Big
Codec ID : A_AC3
Duration : 1h 33mn
Bit rate mode : Constant
Bit rate : 128 Kbps
Channel(s) : 2 channels
Channel positions : Front: L R
Sampling rate : 48.0 KHz
Bit depth : 16 bits
Compression mode : Lossy
Stream size : 85.5 MiB (3%)
Default : No
Forced : No

Audio #2
ID : 3
Format : AC-3
Format/Info : Audio Coding 3
Mode extension : CM (complete main)
Format settings, Endianness : Big
Codec ID : A_AC3
Duration : 1h 33mn
Bit rate mode : Constant
Bit rate : 448 Kbps
Channel(s) : 6 channels
Channel positions : Front: L C R, Side: L R, LFE
Sampling rate : 48.0 KHz
Bit depth : 16 bits
Compression mode : Lossy
Stream size : 299 MiB (9%)
Default : No
Forced : No

Menu
00:00:00.000 : en:00:00:00.000
00:08:00.000 : en:00:08:00.000
00:16:00.000 : en:00:16:00.000
00:24:00.000 : en:00:24:00.000
00:32:00.000 : en:00:32:00.000
00:40:00.000 : en:00:40:00.000
00:48:00.000 : en:00:48:00.000
00:56:00.000 : en:00:56:00.000
01:04:00.000 : en:01:04:00.000
01:12:00.000 : en:01:12:00.000
01:20:00.000 : en:01:20:00.000
01:28:00.000 : en:01:28:00.000
Свернуть
 zima-letoru и rotametr нравится это.
Не в сети
Профиль  
Начать новую темуОтветить на тему  [ 1 сообщение ] 
Вы не можете начинать темы
Вы не можете отвечать на сообщения
Вы не можете редактировать свои сообщения
Вы не можете удалять свои сообщения