Правила форума

  • В этом разделе создание новых тем Запрещено.
  • Для создания новых тем пользуйтесь Корневым разделом DVD и HD фильмы.
Начать новую темуОтветить на тему  [ Сообщений: 2 ] 
Торрент файл
Размер: 11.28 GB • Зарегистрирован: 5 лет 2 месяца • Статус: Проверено
Скачан: 71 раз • Желающих скачать: 0 • Поблагодарили: 14 раз
 Раздают: 1  |  0 KB/s  ]   Качают: 0  |  0 KB/s  ] 
Сообщения
 Добавлено: 2011-09-11 18:19
Модератор релиз-группы
Аватара пользователя
Стаж: 9 лет 1 месяц
Возраст: 97
Сообщений: 11660
Спасибок: 6534
Лайков: 269
Пиджак / The Jacket

Изображение

Год выпуска: 2004
Страна: США, Германия
Жанр: фантастика, фэнтези, триллер, драма, детектив
Продолжительность: 01:42:55
Перевод: Профессиональный (дублирование)R5
Профессиональный (двухголосый) Tycoon-Studio
Оригинал звуковая дорожка
Режиссер: Джон Мэйбери (John Maybury)

В ролях: Эдриан Броуди, Кира Найтли, Крис Кристофферсон, Дженнифер Джейсон Ли, Келли Линч, Брэд Ренфро, Дэниэл Крэйг, Стивен Макинтош, Брендан Койл, МакКензи Филлипс

Описание: Ветеран войны в Персидском заливе Джек Старкс, поправляется после ранения в голову. Он возвращается в родной штат Вермонт, но ранение дает о себе знать приступами амнезии. Когда Старкса обвиняют в убийстве полицейского, его направляют на психиатрическую экспертизу. Доктор Беккер использует экпериментальные методы лечения, вводя Старксу новейшие препараты. После инъекций Старксу надевают смирительную рубашку и помещают в подвал. В наркотическом опьянении мысли Старкса устремляются в будущее, где он встречает Джеки и узнает, что ему осталось жить 4 дня. Вместе в Джеки он ищет возможность убежать от судьбы.
Изображение
Качество: BDRip
Формат: MKV
Видео: 1920x794 at 23.976 fps, x264@L4.1, ~13000 kbps avg
Аудио №1: Russian: 48 kHz, AC3, 3/2 (L,C,R,l,r) + LFE ch, ~448.00 kbps avg |Дубляж, R5|
Аудио №2: Russian: 48 kHz, AC3, 3/2 (L,C,R,l,r) + LFE ch, ~448.00 kbps avg |Двухголосый закадровый, Tycoon-Studio|
Аудио №3: English: 48 kHz, DTS, 3/2 (L,C,R,l,r) + LFE ch, ~1536.00 kbps avg
Субтитры: Russian (R5), Russian (Tycoon), English
скриншоты
Изображение

Изображение

Изображение

Изображение
Свернуть

Mi
Format : Matroska
Format version : Version 2
File size : 11.3 GiB
Duration : 1h 42mn
Overall bit rate : 15.7 Mbps
Movie name : The Jacket (2005) - Release for HDClub by shartm & doclogan
Encoded date : UTC 2011-09-11 09:38:12
Writing application : mkvmerge v4.7.0 ('Just Like You Imagined') built on Apr 21 2011 01:13:14
Writing library : libebml v1.2.0 + libmatroska v1.1.0

Video
ID : 1
Format : AVC
Format/Info : Advanced Video Codec
Format profile : High@L4.1
Format settings, CABAC : Yes
Format settings, ReFrames : 5 frames
Codec ID : V_MPEG4/ISO/AVC
Duration : 1h 42mn
Bit rate mode : Variable
Bit rate : 13.0 Mbps
Maximum bit rate : 50.0 Mbps
Width : 1 920 pixels
Height : 794 pixels
Display aspect ratio : 2.40:1
Frame rate : 23.976 fps
Color space : YUV
Chroma subsampling : 4:2:0
Bit depth : 8 bits
Scan type : Progressive
Bits/(Pixel*Frame) : 0.355
Stream size : 9.33 GiB (83%)
Title : Release for HDClub by shartm & doclogan
Writing library : x264 core 116 r2074kMod 2641b9e
Encoding settings : cabac=1 / ref=5 / deblock=1:-2:-2 / analyse=0x3:0x113 / me=umh / subme=11 / psy=1 / fade_compensate=0.00 / psy_rd=0.95:0.10 / mixed_ref=1 / me_range=32 / chroma_me=1 / trellis=2 / 8x8dct=1 / cqm=0 / deadzone=21,11 / fast_pskip=0 / chroma_qp_offset=-3 / threads=9 / sliced_threads=0 / nr=0 / decimate=1 / interlaced=0 / bluray_compat=0 / constrained_intra=0 / bframes=10 / b_pyramid=2 / b_adapt=2 / b_bias=0 / direct=1 / weightb=1 / open_gop=0 / weightp=2 / keyint=250 / keyint_min=23 / scenecut=40 / intra_refresh=0 / rc_lookahead=40 / rc=crf / mbtree=0 / crf=18.0000 / qcomp=0.55 / qpmin=10 / qpmax=51 / qpstep=4 / vbv_maxrate=50000 / vbv_bufsize=62500 / crf_max=0.0 / nal_hrd=vbr / ip_ratio=1.40 / pb_ratio=1.30 / aq=3:0.90
Language : English

Audio #1
ID : 2
Format : AC-3
Format/Info : Audio Coding 3
Mode extension : CM (complete main)
Codec ID : A_AC3
Duration : 1h 42mn
Bit rate mode : Constant
Bit rate : 448 Kbps
Channel(s) : 6 channels
Channel positions : Front: L C R, Side: L R, LFE
Sampling rate : 48.0 KHz
Bit depth : 16 bits
Compression mode : Lossy
Stream size : 330 MiB (3%)
Title : DD 5.1 @ 448 kbps – Дубляж (R5)
Language : Russian

Audio #2
ID : 3
Format : AC-3
Format/Info : Audio Coding 3
Mode extension : CM (complete main)
Codec ID : A_AC3
Duration : 1h 42mn
Bit rate mode : Constant
Bit rate : 448 Kbps
Channel(s) : 6 channels
Channel positions : Front: L C R, Side: L R, LFE
Sampling rate : 48.0 KHz
Bit depth : 16 bits
Compression mode : Lossy
Stream size : 330 MiB (3%)
Title : DD 5.1 @ 448 kbps – Двухголосый закадровый (Tycoon)
Language : Russian

Audio #3
ID : 4
Format : DTS
Format/Info : Digital Theater Systems
Codec ID : A_DTS
Duration : 1h 42mn
Bit rate mode : Constant
Bit rate : 1 510 Kbps
Channel(s) : 6 channels
Channel positions : Front: L C R, Side: L R, LFE
Sampling rate : 48.0 KHz
Bit depth : 24 bits
Compression mode : Lossy
Delay relative to video : 22ms
Stream size : 1.09 GiB (10%)
Title : DTS 5.1 @ 1.5 Mbps
Language : English

Text #1
ID : 5
Format : UTF-8
Codec ID : S_TEXT/UTF8
Codec ID/Info : UTF-8 Plain Text
Title : R5
Language : Russian

Text #2
ID : 6
Format : UTF-8
Codec ID : S_TEXT/UTF8
Codec ID/Info : UTF-8 Plain Text
Title : Tycoon
Language : Russian

Text #3
ID : 7
Format : UTF-8
Codec ID : S_TEXT/UTF8
Codec ID/Info : UTF-8 Plain Text
Language : English

Menu
00:00:00.000 : en:First Time I Died
00:03:44.599 : en:Roadside Aid
00:07:10.805 : en:Committed
00:12:29.248 : en:Morgue Locker Visions
00:16:41.417 : en:Meeting MacKenzie
00:19:28.584 : en:Round Two
00:22:50.828 : en:Christmas Eve With Jackie
00:27:10.212 : en:Snooping
00:30:38.378 : en:Don't You Remember Me?
00:35:53.360 : en:Not a Lab Animal
00:38:28.806 : en:Where Medicine Leaves Off
00:43:26.813 : en:Different Person
00:46:23.406 : en:Giving Becker an Itch
00:51:16.991 : en:The Crazy One
00:56:20.627 : en:Head Trauma
00:59:24.728 : en:How Do You Know?
01:01:49.539 : en:His Own Grave
01:04:44.464 : en:Who Wouldn't Be Nervous?
01:09:45.723 : en:Seeing a Ghost
01:15:02.289 : en:We Haunt You
01:17:59.091 : en:Breakthrough
01:21:42.314 : en:Visiting Jean and Jackie
01:27:48.513 : en:Life After Death
01:32:45.185 : en:Better Now
01:35:29.724 : en:End Credits

Свернуть
_________________
Изображение
Не в сети
Профиль  
 Добавлено: 2012-06-15 23:37 (спустя 9 месяцев)
Аватара пользователя
Стаж: 8 лет 7 месяцев
Сообщений: 46
Спасибок: 133
Кинцо норм
Не в сети
Профиль  
Начать новую темуОтветить на тему  [ Сообщений: 2 ] 
Вы не можете начинать темы
Вы не можете отвечать на сообщения
Вы не можете редактировать свои сообщения
Вы не можете удалять свои сообщения