Правила форума

  • В этом разделе создание новых тем Запрещено.
  • Для создания новых тем пользуйтесь Корневым разделом DVD и HD фильмы.
Начать новую темуОтветить на тему  [ Сообщений: 6 ] 
Торрент файл
Размер: 8.24 GB • Зарегистрирован: 5 лет • Статус: Проверено
Скачан: 408 раз • Желающих скачать: 0 • Поблагодарили: 80 раз
 Раздают: 0  |  0 KB/s  ]   Качают: 0  |  0 KB/s  ] 
 Полного источника не было 4 часа 
Сообщения
 Добавлено: 2011-11-16 18:34
Руководитель релиз-группы
Аватара пользователя
Стаж: 8 лет 6 месяцев
Возраст: 25
Сообщений: 7578
Спасибок: 51913
Лайков: 14
Изображение

Пингвины мистера Поппера
Mr. Popper's Penguins

Год выпуска: 2011
Страна: США

Жанр: комедия, семейный
Продолжительность: 01:34:21
Перевод: Профессиональный (полное дублирование)

Режиссер: Марк С. Уотерс
Сценарий: Шон Андерс, Джон Моррис, Джаред Штерн, Ричард Этуотер, Флоренс Этуотер
Продюсер: Джон Дэвис, Дерек Дочи, Линда Филдс, Джонатан Филли, Джоэль Готлер
Оператор: Флориан Баллхаус
Композитор: Рольф Кент

В ролях: Джим Керри, Карла Гуджино, Анджела Лэнсбери, Офелия Ловибонд, Мадлен Кэрролл, Кларк Грегг, Джефри Тэмбор, Дэвид Крамхолц, Филип Бейкер Холл, Максвелл Перри Коттон, Джеймс Таппер, Доминик Кьянезе
Дублёры: Илья Бледный, Людмила Шувалова, Александра Назарова, Лиза Мартиросова, Александр Груздев, Никита Прозоровский, Даниил Эльдаров, Алексей Борзунов, Артем Карапетян, Александр Новиков
Описание: Какую только свинью порой не подложит судьба! Правда, на этот раз она решила обойтись более экзотическими животными.
Преуспевающий бизнесмен получает в наследство шестерых пингвинов и буквально влюбляется в них. Работа оказывается заброшенной, шикарные апартаменты превращаются в заснеженную обитель, дело даже почти доходит до тюрьмы. Но стоит ли сожалеть о мишуре, пусть даже и золотой, если взамен тебе открывается такой необычный, и вместе с тем такой настоящий мир?
Релиз: Изображение
Качество: BDRip 1080p
Формат: MKV
Видео: 1920x1040 at 23.976 fps, x264@L4.1, 2pass, ~9778 kbps avg
Аудио#1: Russian: 48 kHz, DTS, 3/2 (L,C,R,l,r) + LFE ch, ~768.00 kbps avg |Дубляж, Blu-ray CEE|
Аудио#2: Ukrainian: 48 kHz, AC3, 3/2 (L,C,R,l,r) + LFE ch, ~448.00 kbps avg |Дубляж, Blu-ray CEE|
Аудио#3: English: 48 kHz, DTS, 3/2 (L,C,R,l,r) + LFE ch, ~1536.00 kbps avg
Субтитры: Russian (Blu-ray CEE), Ukrainian (Blu-ray CEE), English
"Знаете ли Вы, что..."
  • Фильм основан на книге Ричарда и Флоренс Атуотеров (Richard and Florence Atwater), впервые изданной в 1938 г.
  • Настоящие пингвины использовались в съемках только для некоторых сцен, которые проходили в холодильных сооружениях.
Свернуть
"MediaInfo"
General
Unique ID                        : 182762348522074443783820193298265000394 (0x897EBF7B20877877A8DCA2CF61F9C9CA)
Complete name                    : E:\Download\Mr.Popper's.Penguins.2011.1080p.BluRay.Rus.Ukr.Eng.HDCLUB.mkv
Format                           : Matroska
File size                        : 8.24 GiB
Duration                         : 1h 34mn
Overall bit rate                 : 12.5 Mbps
Movie name                       : Mr Popper's Penguins (2011) - Release for HDCLUB
Encoded date                     : UTC 2011-11-15 23:27:26
Writing application              : mkvmerge v3.4.0 ('Rapunzel') built on May 15 2010 09:38:20
Writing library                  : libebml v0.8.0 + libmatroska v0.9.0

Video
ID                               : 1
Format                           : AVC
Format/Info                      : Advanced Video Codec
Format profile                   : High@L4.1
Format settings, CABAC           : Yes
Format settings, ReFrames        : 9 frames
Codec ID                         : V_MPEG4/ISO/AVC
Duration                         : 1h 34mn
Bit rate                         : 9 546 Kbps
Width                            : 1 280 pixels
Height                           : 694 pixels
Display aspect ratio             : 16:9
Frame rate                       : 23.976 fps
Color space                      : YUV
Chroma subsampling               : 4:2:0
Bit depth                        : 8 bits
Scan type                        : Progressive
Bits/(Pixel*Frame)               : 0.448
Stream size                      : 6.29 GiB (76%)
Title                            : Release for HDCLUB
Writing library                  : x264 core 119 r2106 07efeb4
Encoding settings                : cabac=1 / ref=9 / deblock=1:-3:-3 / analyse=0x3:0x113 / me=esa / subme=9 / psy=1 / psy_rd=1.15:0.00 / mixed_ref=1 / me_range=24 / chroma_me=1 / trellis=2 / 8x8dct=1 / cqm=0 / deadzone=21,11 / fast_pskip=0 / chroma_qp_offset=-2 / threads=6 / sliced_threads=0 / nr=0 / decimate=0 / interlaced=0 / bluray_compat=0 / constrained_intra=0 / bframes=7 / b_pyramid=2 / b_adapt=2 / b_bias=0 / direct=3 / weightb=1 / open_gop=0 / weightp=2 / keyint=250 / keyint_min=23 / scenecut=40 / intra_refresh=0 / rc=crf / mbtree=0 / crf=16.5 / qcomp=0.56 / qpmin=0 / qpmax=69 / qpstep=4 / ip_ratio=1.40 / pb_ratio=1.30 / aq=1:0.65 / zones=5073,5143,b=1.3/5615,5785,b=1.3/6110,6226,b=1.3/8100,8162,b=1.3/9343,9475,b=1.3/10552,10813,b=1.3/11365,11443,b=1.3/11509,11530,b=1.3/11621,11822,b=1.3/14254,14368,b=1.3/14408,15154,b=1.3/15637,16010,b=1.3/16790,16904,b=1.3/17117,17215,b=1.3/20414,20570,b=1.3/31276,31481,b=1.3/43748,44498,b=1.3/56405,56983,b=1.3/65005,65129,b=1.3/66545,66689,b=1.3/67034,67312,b=1.3/74866,75207,b=1.3/77938,78059,b=1.3/97898,98153,b=1.3/98299,98427,b=1.3/98636,98797,b=1.3/105947,106161,b=1.3/115701,115951,b=1.3
Language                         : English

Audio #1
ID                               : 2
Format                           : DTS
Format/Info                      : Digital Theater Systems
Codec ID                         : A_DTS
Duration                         : 1h 34mn
Bit rate mode                    : Constant
Bit rate                         : 755 Kbps
Channel(s)                       : 6 channels
Channel positions                : Front: L C R, Side: L R, LFE
Sampling rate                    : 48.0 KHz
Bit depth                        : 24 bits
Compression mode                 : Lossy
Stream size                      : 509 MiB (6%)
Title                            : DTS 5.1 @ 768 kbps - Дублированный, BluRay
Language                         : Russian

Audio #2
ID                               : 3
Format                           : AC-3
Format/Info                      : Audio Coding 3
Mode extension                   : CM (complete main)
Codec ID                         : A_AC3
Duration                         : 1h 34mn
Bit rate mode                    : Constant
Bit rate                         : 448 Kbps
Channel(s)                       : 6 channels
Channel positions                : Front: L C R, Side: L R, LFE
Sampling rate                    : 48.0 KHz
Bit depth                        : 16 bits
Compression mode                 : Lossy
Stream size                      : 302 MiB (4%)
Title                            : AC3 5.1 @ 448 kbps - Дублированный, BluRay
Language                         : Ukrainian

Audio #3
ID                               : 4
Format                           : DTS
Format/Info                      : Digital Theater Systems
Codec ID                         : A_DTS
Duration                         : 1h 34mn
Bit rate mode                    : Constant
Bit rate                         : 1 510 Kbps
Channel(s)                       : 6 channels
Channel positions                : Front: L C R, Side: L R, LFE
Sampling rate                    : 48.0 KHz
Bit depth                        : 24 bits
Compression mode                 : Lossy
Delay relative to video          : 11ms
Stream size                      : 1 019 MiB (12%)
Title                            : DTS 5.1 @ 1536 kbps
Language                         : English

Text #1
ID                               : 5
Format                           : UTF-8
Codec ID                         : S_TEXT/UTF8
Codec ID/Info                    : UTF-8 Plain Text
Language                         : Russian

Text #2
ID                               : 6
Format                           : UTF-8
Codec ID                         : S_TEXT/UTF8
Codec ID/Info                    : UTF-8 Plain Text
Language                         : Ukrainian

Text #3
ID                               : 7
Format                           : UTF-8
Codec ID                         : S_TEXT/UTF8
Codec ID/Info                    : UTF-8 Plain Text
Language                         : English

Text #4
ID                               : 8
Format                           : UTF-8
Codec ID                         : S_TEXT/UTF8
Codec ID/Info                    : UTF-8 Plain Text
Language                         : Portuguese

Text #5
ID                               : 9
Format                           : UTF-8
Codec ID                         : S_TEXT/UTF8
Codec ID/Info                    : UTF-8 Plain Text
Language                         : Spanish

Menu
00:00:00.000                     : en:Chapter 1
00:02:48.251                     : en:Chapter 2
00:07:20.065                     : en:Chapter 3
00:11:40.992                     : en:Chapter 4
00:14:20.985                     : en:Chapter 5
00:17:49.402                     : en:Chapter 6
00:20:55.796                     : en:Chapter 7
00:23:34.121                     : en:Chapter 8
00:28:27.372                     : en:Chapter 9
00:32:29.072                     : en:Chapter 10
00:36:13.546                     : en:Chapter 11
00:38:20.215                     : en:Chapter 12
00:42:19.912                     : en:Chapter 13
00:47:25.092                     : en:Chapter 14
00:50:57.805                     : en:Chapter 15
00:54:10.622                     : en:Chapter 16
00:56:47.279                     : en:Chapter 17
01:00:29.125                     : en:Chapter 18
01:06:48.004                     : en:Chapter 19
01:09:49.560                     : en:Chapter 20
01:13:20.521                     : en:Chapter 21
01:19:16.377                     : en:Chapter 22
01:23:42.517                     : en:Chapter 23
01:27:29.119                     : en:Chapter 24
Свернуть
"Скриншоты"

Изображение
Изображение
Изображение
Свернуть
Не в сети
Профиль  
 Добавлено: 2011-11-18 21:46 (спустя 2 дня 3 часа)
Стаж: 8 лет 6 месяцев
Сообщений: 2
:ti_pa:
Не в сети
Профиль  
 Добавлено: 2011-11-19 21:12 (спустя 23 часа)
Аватара пользователя
Стаж: 8 лет 8 месяцев
Возраст: 55
Сообщений: 264
Лайков: 19
Замечательный семейный фильм. Качество картинки и звука на высоте. Спасибо за прекрасно проведённое время у экрана. Джим Керри через пару месяцев отметит пятидесятилетие.
Не в сети
Профиль  
 Добавлено: 2011-11-23 21:42 (спустя 4 дня)
Аватара пользователя
Стаж: 8 лет 10 месяцев
Сообщений: 703
Спасибок: 11142
Лайков: 2
Буду качать это. -)
Не в сети
Профиль  
 Добавлено: 2011-11-24 11:32 (спустя 13 часов)
Стаж: 7 лет 3 месяца
Сообщений: 10
Хороший фильм.СПС
Не в сети
Профиль  
 Добавлено: 2012-10-24 22:19 (спустя 11 месяцев)
Модератор
Аватара пользователя
Стаж: 9 лет
Сообщений: 3446
Спасибок: 1556
Лайков: 77
1% скачать осталось, вернитесь :-D
_________________
Пока тут пусто.
Не в сети
Профиль  
Начать новую темуОтветить на тему  [ Сообщений: 6 ] 
Вы не можете начинать темы
Вы не можете отвечать на сообщения
Вы не можете редактировать свои сообщения
Вы не можете удалять свои сообщения