Правила форума

  • В этом разделе создание новых тем Запрещено.
  • Для создания новых тем пользуйтесь Корневым разделом DVD и HD фильмы.
Начать новую темуОтветить на тему  [ Сообщений: 4 ] 
Торрент файл
Размер: 9.69 GB • Зарегистрирован: 2 года 11 месяцев • Статус: Проверено
Скачан: 167 раз • Желающих скачать: 0 • Поблагодарили: 59 раз
 Раздают: 0  |  0 KB/s  ]   Качают: 0  |  0 KB/s  ] 
 Полного источника не было 4 часа 
Сообщения
 Добавлено: 2013-12-08 11:40
Руководитель релиз-группы
Аватара пользователя
Стаж: 7 лет 4 месяца
Возраст: 31
Сообщений: 3407
Спасибок: 46729
Лайков: 5
Изображение

Пипец 2
Kick-Ass 2


Год выпуска: 2013
Страна: США, Великобритания
Слоган: «You Can't Fight Your Destiny»
Жанр: боевик, комедия, криминал
Продолжительность: 01:43:00
Перевод: Профессиональный (полное дублирование) [лицензия]
Режиссер: Джефф Уодлоу
Сценарий: Джефф Уодлоу, Марк Миллар, Джон Ромита мл.
Продюсер: Адам Болинг, Мэттью Вон, Тарквин Пэк, Брэд Питт, Дэвид Рейд
Оператор: Тим Морис-Джонс
Композитор: Генри Джекман, Мэттью Марджесон
В ролях: Аарон Тейлор-Джонсон, Хлоя Грейс Морец, Кристофер Минц-Плассе, Джим Керри, Ольга Куркулина, Кларк Дьюк, Линди Бут, Дональд Фэйсон, Моррис Честнат, Август Прю, Роберт Эммс, Клаудия Ли
Бюджет: $28 000 000
Сборы в США: $28 795 985
Сборы в России: $1 806 980
Сборы в мире: $59 556 104
Описание: В реальной жизни не встретишь супергероя из комиксов, зато в ней есть настоящие герои. Харизматичный Пипец и гламурная Убивашка обрели новую команду поддержки во главе с Полковником Америка. Но кроме обычных мафиози, над городом нависает новая угроза - молодой мажор с очень дурным характером и целой армией отмороженных наемников.
Изображение
MPAA: Изображение
Мировая премьера: 14 августа 2013
Релиз на DVD: 19 декабря 2013,
«Двадцатый Век Фокс СНГ»,
...

Релиз на Blu-ray: 19 декабря 2013,
«Двадцатый Век Фокс СНГ»,
...

Раздача группы: Изображение
Качество: BDRip, 1080p
Формат: MKV
Видео: AVC; 1920x800 (2.40:1); 10297 Kbps; 23,976 fps; 0,280 bit/pixel
Аудио №1: DTS; 755 Kbps; CBR; 6 ch; 24 bit Russian
Аудио №2: AC3; 448 Kbps; CBR; 6 ch Russian
Аудио №3: DTS; 1510 Kbps; CBR; 6 ch; 24 bit English
Аудио №4: AC3; 192 Kbps; CBR; 2 ch English
Субтитры: русские, английские
mediainfo
Формат : Matroska
Версия формата : Version 2
Размер файла : 9,69 Гбайт
Продолжительность : 1 ч. 43 м.
Общий поток : 13,5 Мбит/сек
Название фильма : Kick-Ass 2 (2013) | Rip by CHD
Дата кодирования : UTC 2013-12-08 04:38:10
Программа кодирования : mkvmerge v6.3.0 ('You can't stop me!') built on Jun 28 2013 20:09:41
Библиотека кодирования : libebml v1.3.0 + libmatroska v1.4.0

Видео
Идентификатор : 1
Формат : AVC
Формат/Информация : Advanced Video Codec
Профиль формата : High@L4.1
Параметр CABAC формата : Да
Параметр ReFrames формата : 5 кадров
Идентификатор кодека : V_MPEG4/ISO/AVC
Продолжительность : 1 ч. 43 м.
Битрейт : 10,6 Мбит/сек
Ширина : 1920 пикселей
Высота : 800 пикселей
Соотношение сторон : 2,40:1
Частота кадров : 23,976 кадра/сек
Цветовое пространство : YUV
Субдискретизация насыщенности : 4:2:0
Битовая глубина : 8 бит
Тип развёртки : Прогрессивная
Бит/(Пиксели*Кадры) : 0.287
Размер потока : 7,41 Гбайт (76%)
Заголовок : Kick-Ass 2 (2013) by bog3417
Библиотека кодирования : x264 core 138 r2356 a1d3d17
Настройки программы : cabac=1 / ref=5 / deblock=1:-3:-3 / analyse=0x3:0x113 / me=umh / subme=10 / psy=1 / psy_rd=1.00:0.05 / mixed_ref=1 / me_range=32 / chroma_me=1 / trellis=2 / 8x8dct=1 / cqm=0 / deadzone=21,11 / fast_pskip=0 / chroma_qp_offset=-2 / threads=18 / lookahead_threads=1 / sliced_threads=0 / nr=0 / decimate=1 / interlaced=0 / bluray_compat=0 / constrained_intra=0 / bframes=5 / b_pyramid=2 / b_adapt=2 / b_bias=0 / direct=3 / weightb=1 / open_gop=0 / weightp=2 / keyint=250 / keyint_min=23 / scenecut=40 / intra_refresh=0 / rc=2pass / mbtree=0 / bitrate=10554 / ratetol=1.0 / qcomp=0.70 / qpmin=0 / qpmax=69 / qpstep=4 / cplxblur=20.0 / qblur=0.5 / ip_ratio=1.40 / pb_ratio=1.30 / aq=2:1.00
Язык : English

Аудио #1
Идентификатор : 2
Формат : DTS
Формат/Информация : Digital Theater Systems
Идентификатор кодека : A_DTS
Продолжительность : 1 ч. 43 м.
Вид битрейта : Постоянный
Битрейт : 755 Кбит/сек
Каналы : 6 каналов
Расположение каналов : Front: L C R, Side: L R, LFE
Частота : 48,0 КГц
Битовая глубина : 24 бит
Метод сжатия : С потерями
Размер потока : 556 Мбайт (6%)
Заголовок : DTS 5.1 - 768 kbps |Дубляж, BD CEE|
Язык : Russian

Аудио #2
Идентификатор : 3
Формат : AC-3
Формат/Информация : Audio Coding 3
Расширение режима : CM (complete main)
Идентификатор кодека : A_AC3
Продолжительность : 1 ч. 43 м.
Вид битрейта : Постоянный
Битрейт : 448 Кбит/сек
Каналы : 6 каналов
Расположение каналов : Front: L C R, Side: L R, LFE
Частота : 48,0 КГц
Битовая глубина : 16 бит
Метод сжатия : С потерями
Размер потока : 330 Мбайт (3%)
Заголовок : DD 5.1 - 448 kbps |Дубляж, BD CEE|
Язык : Russian

Аудио #3
Идентификатор : 4
Формат : DTS
Формат/Информация : Digital Theater Systems
Идентификатор кодека : A_DTS
Продолжительность : 1 ч. 43 м.
Вид битрейта : Постоянный
Битрейт : 1510 Кбит/сек
Каналы : 6 каналов
Расположение каналов : Front: L C R, Side: L R, LFE
Частота : 48,0 КГц
Битовая глубина : 24 бит
Метод сжатия : С потерями
Размер потока : 1,09 Гбайт (11%)
Заголовок : DTS 5.1 - 1509 kbps |Оригинал|
Язык : English

Аудио #4
Идентификатор : 5
Формат : AC-3
Формат/Информация : Audio Coding 3
Профиль формата : Dolby Digital
Расширение режима : CM (complete main)
Идентификатор кодека : A_AC3
Продолжительность : 1 ч. 43 м.
Вид битрейта : Постоянный
Битрейт : 192 Кбит/сек
Каналы : 2 канала
Расположение каналов : Front: L R
Частота : 48,0 КГц
Битовая глубина : 16 бит
Метод сжатия : С потерями
Размер потока : 141 Мбайт (1%)
Заголовок : DD 2.0 - 192 kbps |Комментарии|
Язык : English

Текст #1
Идентификатор : 6
Формат : UTF-8
Идентификатор кодека : S_TEXT/UTF8
Идентификатор кодека/Информация : UTF-8 Plain Text
Заголовок : Forsed
Язык : Russian

Текст #2
Идентификатор : 7
Формат : UTF-8
Идентификатор кодека : S_TEXT/UTF8
Идентификатор кодека/Информация : UTF-8 Plain Text
Язык : Russian

Текст #3
Идентификатор : 8
Формат : UTF-8
Идентификатор кодека : S_TEXT/UTF8
Идентификатор кодека/Информация : UTF-8 Plain Text
Язык : English

Меню
00:00:00.000 : en:00:00:00.000
00:05:58.191 : en:00:05:58.191
00:10:37.929 : en:00:10:37.929
00:14:08.306 : en:00:14:08.306
00:19:11.108 : en:00:19:11.108
00:23:11.348 : en:00:23:11.348
00:30:20.444 : en:00:30:20.444
00:35:25.498 : en:00:35:25.498
00:40:13.786 : en:00:40:13.786
00:45:37.193 : en:00:45:37.193
00:52:35.778 : en:00:52:35.778
00:58:02.396 : en:00:58:02.396
01:00:37.843 : en:01:00:37.843
01:05:36.099 : en:01:05:36.099
01:09:57.944 : en:01:09:57.944
01:15:56.343 : en:01:15:56.343
01:21:05.486 : en:01:21:05.486
01:23:32.549 : en:01:23:32.549
01:33:05.538 : en:01:33:05.538
01:36:38.251 : en:01:36:38.251

Свернуть
"Знаете ли Вы, что..."
  • Аарон Тейлор-Джонсон набрал 15 фунтов мышечной массы для роли.
  • Статуя ребенка в армейском шлеме с гранатой в руке, находящаяся в логове злодея, является работой британского художника Скуни (Schoony) и называется «Мальчик-солдат».
  • Это первый фильм Джеффа Уодлоу, получивший рейтинг «R».
  • Джим Керри сам купил реквизит, чтобы выглядеть так же как его персонаж в комиксах.
  • Эван Питерс не смог сыграть роль Тодда Хейнса из-за несогласованности расписаний съемок с сериалом «Американская история ужасов» (2011).
  • Плакаты в комнате Дэйва - «Американский Иисус» и «Превосходный» - это два графических романа, написанные Марком Милларом.
  • Когда Мать-Россия уничтожает полицейские машины, на фоне играет русская народная мелодия «Коробейники», используемая в игре «Тетрис».
  • В комиксах Полковник Звёзды и полосы - это два брата: Полковник Звёзды и Лейтенант Полосы.
  • Большинство удачных фраз Джима Керри - результат удачных импровизаций самого актёра.
  • Во время флэшбэка на похоронах можно заметить имя Марка Миллара в верхней части плаката. Марк Миллар является автором комиксов «Пипец» (Kick-Ass).
  • Джиму Керри в этом фильме отведено всего 7 минут и 45 секунд экранного времени.
  • еще 8 фактов
  • Когда Дэйв в больнице говорит, что он и есть Пипец, он снимает очки левой рукой. В правой руке у него цветы. Секунду спустя, когда он сидит на кровати, очки снова на нем.
  • В сцене, где во время тренировки Минди подстреливает Дэйва, в его куртке видны два пулевых отверстия, хотя стреляли в него всего один раз.
  • Когда Пипец впервые входит в штаб-квартиру организации «Справедливость навсегда», на полке видна банка арахисового масла. После крупного плана Пипца банка исчезает.
  • Когда злодеи находятся на своей базе, у Криса два пистолета на его костюме. Впоследствии это оружие исчезает.
  • Мать-Россия отрывает дверь автомобиля и использует ее в качестве щита, а затем бросает ее в полицейского, но при этом на ней уже нет никаких пулевых отверстий.
  • Когда Мать-Россия разрушает полицейские машины, она ставит газонокосилку на багажник одной, затем въезжает на ней задним ходом в другую машину, и запускает газонокосилку в лобовое стекло. У этой модели газонокосилки в рабочем режиме должна быть зажата управляющая ручка, в противном случае ее двигатель выключится.
Свернуть
Скриншоты

Изображение

Изображение

Изображение

Изображение

Изображение
Свернуть
Не в сети
Профиль  
 Добавлено: 2013-12-09 21:33 (спустя 1 день 9 часов)
Стаж: 7 лет 5 месяцев
Сообщений: 103
Лайков: 4
Как мне тут написали, геи тоже люди...
Не в сети
Профиль  
 Добавлено: 2013-12-14 16:08 (спустя 4 дня)
Кинокомментатор
Аватара пользователя
Стаж: 9 лет 1 месяц
Сообщений: 1332
Лайков: 54
не плохой фильмец) для подростков старшеклассников) посмотреть можно вполне!) и лишь один вопрос "Убивашка" тоже привратится в Линси Лохан?)
6/10
_________________
Я ВКонтакте
Не в сети
Профиль  
 Добавлено: 2013-12-24 06:19 (спустя 9 дней)
Стаж: 7 лет 5 месяцев
Сообщений: 103
Лайков: 4
ночная стерва ваще клевая, вот моя девушка была такой же!!
Не в сети
Профиль  
Начать новую темуОтветить на тему  [ Сообщений: 4 ] 
Вы не можете начинать темы
Вы не можете отвечать на сообщения
Вы не можете редактировать свои сообщения
Вы не можете удалять свои сообщения