Правила форума

  • В этом разделе создание новых тем Запрещено.
  • Для создания новых тем пользуйтесь Корневым разделом DVD и HD фильмы.
Начать новую темуОтветить на тему  [ Сообщений: 9 ] 
Торрент файл
Размер: 8.8 GB • Зарегистрирован: 4 года 3 месяца • Статус: Проверено
Скачан: 254 раза • Желающих скачать: 0 • Поблагодарили: 25 раз
 Раздают: 0  |  0 KB/s  ]   Качают: 0  |  0 KB/s  ] 
 Полного источника не было 2 года 10 месяцев 
Сообщения
 Добавлено: 2012-08-30 17:12
Модератор
Аватара пользователя
Стаж: 8 лет 7 месяцев
Сообщений: 4965
Спасибок: 110254
Лайков: 18
Изображение

Пираньи 3DD / Piranha 3DD


Год выпуска: 2012
Страна: США
Слоган: «Double the action. Double the terror. Double the D's.»

Жанр: ужасы, триллер, комедия
Продолжительность: 01:22:41
Перевод: Профессиональный (полное дублирование)
Субтитры: Русские
Режиссер: Джон Гулажер
Сценарий: Патрик Мелтон, Маркус Данстэн, Джоэль Сойзон, Пит Голдфингер, Джош Столберг
Продюсер: Марк Кантон, Джоэль Сойзон, Марк Тоберофф, Боб Вайнштейн, Харви Вайнштейн
Оператор: Александр Леманн
Композитор: Элиа Кмирал

В ролях: Даниэль Панабэйкер, Мэтт Буш, Дэвид Кокнер, Катрина Боуден, Крис Зилка, Жан-Люк Билодо, Кристофер Ллойд, Гэри Бьюзи, Адриан Мартинез, Пол Джеймс, Мэган Тэнди, Дэвид Хэсселхофф
Дублёры: Михаил Тихонов, Иван Жарков, Сергей Чихачев, Анастасия Нестеренко
Бюджет: $20 000 000
Сборы в США: $376 512
Сборы в мире: $5 076 216

Мировая премьера: 11 мая 2012
Описание: Доисторические твари больше не будут ограничиваться поеданием туристов на озере, а проникнут через водопроводные и канализационные сети в бассейны и иные искусственные водоемы нового аквапарка под названием Wilderness Waters. Именно там и развернется основное действие.
Изображение 4.1/10 (10,763 users) Изображение 3.199 (2,315)
MPAA: Изображение - Лицам до 17 лет обязательно присутствие взрослого
"NFO"
Format : Matroska
Format version : Version 2
File size : 8.80 GiB
Duration : 1h 22mn
Overall bit rate : 15.2 Mbps
Movie name : ELEKTRO-NFSMW
Encoded date : UTC 2012-08-30 12:49:48
Writing application : mkvmerge v2.9.7 ('Tenderness') built on Jul 13 2009 22:24:14
Writing library : libebml v0.7.7 + libmatroska v0.8.1

Video
ID : 1
Format : AVC
Format/Info : Advanced Video Codec
Format profile : High@L4.1
Format settings, CABAC : Yes
Format settings, ReFrames : 4 frames
Codec ID : V_MPEG4/ISO/AVC
Duration : 1h 22mn
Bit rate : 13.0 Mbps
Width : 1 920 pixels
Height : 1 080 pixels
Display aspect ratio : 16:9
Frame rate mode : Constant
Frame rate : 23.976 fps
Color space : YUV
Chroma subsampling : 4:2:0
Bit depth : 8 bits
Scan type : Progressive
Bits/(Pixel*Frame) : 0.262
Stream size : 7.53 GiB (86%)
Writing library : x264 core 68 r1195bm 5d75a9b
Encoding settings : cabac=1 / ref=4 / deblock=1:0:0 / analyse=0x3:0x13 / me=umh / subme=7 / psy_rd=0.0:0.0 / mixed_ref=1 / me_range=16 / chroma_me=1 / trellis=1 / 8x8dct=1 / cqm=0 / deadzone=21,11 / chroma_qp_offset=0 / threads=1 / thread_queue=1 / nr=0 / decimate=1 / mbaff=0 / bframes=0 / keyint=250 / keyint_min=25 / scenecut=40 / rc=crf / crf=18.0 / qcomp=0.60 / qpmin=10 / qpmax=51 / qpstep=4 / ip_ratio=1.40 / aq=2:1.00
Default : Yes
Forced : No

Audio #1
ID : 2
Format : AC-3
Format/Info : Audio Coding 3
Mode extension : CM (complete main)
Format settings, Endianness : Big
Codec ID : A_AC3
Duration : 1h 22mn
Bit rate mode : Constant
Bit rate : 384 Kbps
Channel(s) : 6 channels
Channel positions : Front: L C R, Side: L R, LFE
Sampling rate : 48.0 KHz
Bit depth : 16 bits
Compression mode : Lossy
Stream size : 227 MiB (3%)
Title : AC3, 6 ch, 384 Кбит/c
Language : Russian
Default : Yes
Forced : No

Audio #2
ID : 3
Format : DTS
Format/Info : Digital Theater Systems
Codec ID : A_DTS
Duration : 1h 22mn
Bit rate mode : Constant
Bit rate : 1 510 Kbps
Channel(s) : 6 channels
Channel positions : Front: L C R, Side: L R, LFE
Sampling rate : 48.0 KHz
Bit depth : 24 bits
Compression mode : Lossy
Stream size : 893 MiB (10%)
Default : No
Forced : No

Text
ID : 4
Format : UTF-8
Codec ID : S_TEXT/UTF8
Codec ID/Info : UTF-8 Plain Text
Default : Yes
Forced : No
Свернуть

Качество: BDRip1080p
Формат: Matroska

Видео: AVC; 1920x1080 (16:9); 13032 Kbps; 23,976 fps; 0,262 bpp
Аудио №1: Russian; AC3; 384 Kbps; CBR; 6 ch; 16 bit
Аудио №2: English; DTS; 1509 Kbps; CBR; 6 ch; 24 bit
"Знаете ли Вы, что..."
  • Первый фильм из серии «Пираньи», который полностью снят в 3D.
  • Миранда Косгров прослушивалась на роль Мэдди, которую в итоге получила Даниэль Панабэйкер.
  • В первом кадре с Дэвидом Хэсселхоффом, когда юный Дэвид бежит к нему, значок у Хоффа надет задом наперед.
  • Когда Мэдди удалось выжить после нападения пираний ее куртка мокрая, а в следующем кадре уже сухая.
  • Когда показывают, как Хэсселхофф смотрит из окна своего номера на улицу, в окне отражается держащий камеру кран.
Свернуть

"Скриншоты"

Изображение

Изображение

Изображение

Свернуть
_________________
Изображение Изображение Изображение
Билайн / АДС добавляйте ретрекер, чтобы качать на скорости 100 Мбит/с
Cкрытый текст
Изображение
Свернуть
Не в сети
Профиль  
 Добавлено: 2012-08-30 21:29 (спустя 4 часа)
Top-seeder
Аватара пользователя
Стаж: 8 лет 11 месяцев
Возраст: 29
Сообщений: 247
Спасибок: 123
Парнишке на третьем скрине видимо ооочень хорошо)
Не в сети
Профиль  
 Добавлено: 2012-08-31 08:56 (спустя 11 часов)
Пользователь забанен
Аватара пользователя
Стаж: 6 лет 10 месяцев
Возраст: 35
Сообщений: 161
Спасибок: 67
Лайков: 15
Ахренеть вот это кино. По концове поржал знатно ;;-)))
_________________
Only Psyhedelic
Не в сети
Профиль  
 Добавлено: 2012-08-31 13:37 (спустя 4 часа)
Аватара пользователя
Стаж: 6 лет 5 месяцев
Сообщений: 19961
Спасибок: 721
Лайков: 461
Восемь гигов для сисек - это нормально! :co_ol:
_________________
It was I'am ... :jn_pu_sk:
Медали и Ордена
ИзображениеИзображение
Свернуть
Не в сети
Профиль  
 Добавлено: 2012-08-31 17:14 (спустя 3 часа)
Стаж: 4 года 4 месяца
Сообщений: 3
ФИльм гуано макаки!
Не в сети
Профиль  
 Добавлено: 2012-08-31 20:57 (спустя 3 часа)
Аватара пользователя
Стаж: 6 лет 5 месяцев
Сообщений: 19961
Спасибок: 721
Лайков: 461
(.) (.) тчк
_________________
It was I'am ... :jn_pu_sk:
Медали и Ордена
ИзображениеИзображение
Свернуть
Не в сети
Профиль  
 Добавлено: 2012-09-01 14:03 (спустя 17 часов)
Аватара пользователя
Стаж: 5 лет
Сообщений: 39
Лайков: 11
звук убегает от картинки(
Не в сети
Профиль  
 Добавлено: 2012-09-02 22:44 (спустя 1 день 8 часов)
Аватара пользователя
Стаж: 6 лет 5 месяцев
Сообщений: 19961
Спасибок: 721
Лайков: 461

Goldstep:

звук убегает от картинки(
Испугался. Вот и убегает. :a_g_a:
Cкрытый текст
:-D
Свернуть
_________________
It was I'am ... :jn_pu_sk:
Медали и Ордена
ИзображениеИзображение
Свернуть
Не в сети
Профиль  
 Добавлено: 2012-09-11 12:42 (спустя 8 дней)
Стаж: 6 лет 1 месяц
Сообщений: 1
Такую Х только америкашки способны снять кто им только денег дает
Не в сети
Профиль  
Начать новую темуОтветить на тему  [ Сообщений: 9 ] 
Вы не можете начинать темы
Вы не можете отвечать на сообщения
Вы не можете редактировать свои сообщения
Вы не можете удалять свои сообщения