Правила форума

  • В этом разделе создание новых тем Запрещено.
  • Для создания новых тем пользуйтесь Корневым разделом DVD и HD фильмы.
Начать новую темуОтветить на тему  [ Сообщений: 12 ] 
Торрент файл
Размер: 14.08 GB • Зарегистрирован: 5 лет 3 месяца • Статус: Проверено
Скачан: 1091 раз • Желающих скачать: 0 • Поблагодарили: 166 раз
 Раздают: 0  |  0 KB/s  ]   Качают: 0  |  0 KB/s  ] 
 Полного источника не было 17 часов 
Сообщения
 Добавлено: 2011-08-26 15:12
Модератор релиз-группы
Аватара пользователя
Стаж: 9 лет 1 месяц
Возраст: 97
Сообщений: 11660
Спасибок: 6534
Лайков: 269
Пираты Карибского моря: На странных берегах / Pirates of the Caribbean: On Stranger Tides

Изображение


Год выпуска: 2011
Страна: сша
Жанр: фэнтези, боевик, комедия, приключения
Продолжительность: 02:16:24
Перевод: Профессиональный (дубляж) лицензия
Оригинальная звуковая дорожка
Субтитры: Русские, Английские

Режиссёр: Роб Маршалл / Rob Marshall
В ролях: Джонни Депп, Пенелопа Крус, Джеффри Раш, Иэн МакШейн, Кевин МакНэлли, Стивен Грэм, Сэм Клафлин, Астрид Берже-Фрисби, Кит Ричардс, Ричард Гриффитс
Описание: В новой истории о поисках истины, предательстве, вечной молодости и смертельной опасности капитану Джеку Воробью предстоит столкнуться с женщиной из своего прошлого Анжеликой. До самого конца не будет понятно, связывает ли их настоящая любовь, или же Анжелика искусно притворяется, чтобы вместе с Джеком добраться до таинственного источника вечной молодости.
Она силой принуждает капитана Джека Воробья взойти на корабль «Месть Королевы Анны», которым управляет коварный злодей Черная Борода. Наш герой оказывается в ситуации, когда он не знает, чего ему бояться больше — ужасного злодея или же свою давнюю подругу.

Изображение
Качество: BDRip
Формат: mkv
Видео кодек: MPEG-4 (AVC)
Аудио кодек: AC3 (Dolby Digital)
Видео: AVC,1920 x 800, 12900 kbps,23.976 fps
Аудио #1: 48 kHz, AC3 Dolby Digital, 3/2 (L,C,R,l,r) + LFE ch, ~384 kbps [Профессиональный (дубляж) лицензия]
Аудио #2: 48 kHz, DTS, 3/2 (L,C,R,l,r) + LFE ch, ~1536.00 kbps avg [Оригинальная звуковая дорожка]
Субтитры: Русские, Английские
Скриншоты
Изображение
Изображение
Изображение
Изображение
Изображение
Свернуть

Mi
Format : Matroska
Format version : Version 2
File size : 14.1 GiB
Duration : 2h 16mn
Overall bit rate : 14.8 Mbps
Movie name : -Talian-
Encoded date : UTC 2011-08-26 11:59:17
Writing application : mkvmerge v4.8.0 ('I Got The...') сборка от May 24 2011 03:12:58
Writing library : libebml v1.2.0 + libmatroska v1.1.0

Video
ID : 1
Format : AVC
Format/Info : Advanced Video Codec
Format profile : High@L4.1
Format settings, CABAC : Yes
Format settings, ReFrames : 4 frames
Format settings, GOP : M=4, N=30
Codec ID : V_MPEG4/ISO/AVC
Duration : 2h 16mn
Bit rate : 12.9 Mbps
Width : 1 920 pixels
Height : 800 pixels
Display aspect ratio : 2.40:1
Frame rate : 23.976 fps
Color space : YUV
Chroma subsampling : 4:2:0
Bit depth : 8 bits
Scan type : Progressive
Bits/(Pixel*Frame) : 0.350
Stream size : 12.0 GiB (85%)
Title : Pirates of the Caribbean On Stranger Tides 2011 1080p BluRay DTS x264-CtrlHD
Writing library : x264 core 116 r2057 0ba8a9c
Encoding settings : cabac=1 / ref=4 / deblock=1:-3:-3 / analyse=0x3:0x133 / me=umh / subme=10 / psy=1 / psy_rd=1.06:0.06 / mixed_ref=1 / me_range=32 / chroma_me=1 / trellis=2 / 8x8dct=1 / cqm=0 / deadzone=21,11 / fast_pskip=1 / chroma_qp_offset=-3 / threads=12 / sliced_threads=0 / nr=0 / decimate=1 / interlaced=0 / bluray_compat=0 / constrained_intra=0 / bframes=8 / b_pyramid=2 / b_adapt=2 / b_bias=0 / direct=3 / weightb=1 / open_gop=1 / weightp=2 / keyint=250 / keyint_min=23 / scenecut=40 / intra_refresh=0 / rc_lookahead=80 / rc=2pass / mbtree=1 / bitrate=12886 / ratetol=1.0 / qcomp=0.60 / qpmin=10 / qpmax=69 / qpstep=4 / cplxblur=20.0 / qblur=0.5 / ip_ratio=1.40 / aq=1:0.80
Language : English

Audio #1
ID : 2
Format : AC-3
Format/Info : Audio Coding 3
Mode extension : CM (complete main)
Codec ID : A_AC3
Duration : 2h 16mn
Bit rate mode : Constant
Bit rate : 384 Kbps
Channel(s) : 6 channels
Channel positions : Front: L C R, Side: L R, LFE
Sampling rate : 48.0 KHz
Bit depth : 16 bits
Compression mode : Lossy
Stream size : 375 MiB (3%)

Audio #2
ID : 3
Format : DTS
Format/Info : Digital Theater Systems
Codec ID : A_DTS
Duration : 2h 16mn
Bit rate mode : Constant
Bit rate : 1 510 Kbps
Channel(s) : 6 channels
Channel positions : Front: L C R, Side: L R, LFE
Sampling rate : 48.0 KHz
Bit depth : 24 bits
Compression mode : Lossy
Delay relative to video : 11ms
Stream size : 1.44 GiB (10%)
Title : Original
Language : English

Text #1
ID : 4
Format : UTF-8
Codec ID : S_TEXT/UTF8
Codec ID/Info : UTF-8 Plain Text
Title : Sub
Language : Russian

Text #2
ID : 5
Format : UTF-8
Codec ID : S_TEXT/UTF8
Codec ID/Info : UTF-8 Plain Text
Title : Sub
Language : English

Menu
00:00:00.000 : en:00:00:00.000
00:03:34.172 : en:00:03:34.172
00:08:46.776 : en:00:08:46.776
00:15:56.080 : en:00:15:56.080
00:18:34.155 : en:00:18:34.155
00:21:15.316 : en:00:21:15.316
00:30:05.512 : en:00:30:05.512
00:36:56.756 : en:00:36:56.756
00:42:05.356 : en:00:42:05.356
00:48:20.022 : en:00:48:20.022
00:53:26.078 : en:00:53:26.078
00:55:42.965 : en:00:55:42.965
00:57:52.844 : en:00:57:52.844
01:00:47.477 : en:01:00:47.477
01:08:22.223 : en:01:08:22.223
01:11:41.339 : en:01:11:41.339
01:13:03.170 : en:01:13:03.170
01:14:16.744 : en:01:14:16.744
01:23:19.995 : en:01:23:19.995
01:26:49.621 : en:01:26:49.621
01:30:16.494 : en:01:30:16.494
01:35:43.738 : en:01:35:43.738
01:40:57.927 : en:01:40:57.927
01:43:07.556 : en:01:43:07.556
01:44:51.660 : en:01:44:51.660
01:48:53.610 : en:01:48:53.610
01:57:41.471 : en:01:57:41.471
02:02:21.376 : en:02:02:21.376
02:05:51.461 : en:02:05:51.461
02:07:26.806 : en:02:07:26.806

Свернуть
_________________
Изображение


Последний раз редактировалось Артурыч 2011-08-26 15:22, всего редактировалось 1 раз.
Не в сети
Профиль  
 Добавлено: 2011-08-26 15:21 (спустя 9 минут)
Аватара пользователя
Стаж: 9 лет
Сообщений: 3711
Спасибок: 8857
Лайков: 3
Артурыч, рип - сцена? Картинка какая-то замыленная.
_________________
Изображение
Не в сети
Профиль  
 Добавлено: 2011-08-26 15:29 (спустя 7 минут)
Модератор релиз-группы
Аватара пользователя
Стаж: 9 лет 1 месяц
Возраст: 97
Сообщений: 11660
Спасибок: 6534
Лайков: 269
ну если это "мыло" для вас, тогда я пас :hi_hi_hi:
Изображение
Свернуть
_________________
Изображение
Не в сети
Профиль  
 Добавлено: 2011-08-26 15:33 (спустя 3 минуты)
Модератор
Аватара пользователя
Стаж: 8 лет 1 месяц
Возраст: 20
Сообщений: 32130
Спасибок: 98572
Лайков: 80
Артурыч
твой рип? :)
Не в сети
Профиль  
 Добавлено: 2011-08-26 15:35 (спустя 2 минуты)
Модератор релиз-группы
Аватара пользователя
Стаж: 9 лет 1 месяц
Возраст: 97
Сообщений: 11660
Спасибок: 6534
Лайков: 269
не а...
CtrlHD ;)
_________________
Изображение
Не в сети
Профиль  
 Добавлено: 2011-08-26 20:31 (спустя 4 часа)
Аватара пользователя
Стаж: 8 лет 1 месяц
Сообщений: 128
Спасибок: 409
Лайков: 25
когда в 3д?
Не в сети
Профиль  
 Добавлено: 2011-08-26 22:42 (спустя 2 часа 11 минут)
Аватара пользователя
Стаж: 7 лет 1 месяц
Возраст: 23
Сообщений: 19
Спасибок: 42
Мне понравился!Джонни Депп просто не повторим в роли воробья.
Не в сети
Профиль  
 Добавлено: 2011-08-27 17:28 (спустя 18 часов)
Аватара пользователя
Стаж: 7 лет 2 месяца
Сообщений: 333
Спасибок: 989
Лайков: 9
Да вот только из-за его игры и стоит качать, сдулись пираты.
Не в сети
Профиль  
 Добавлено: 2011-08-27 22:00 (спустя 4 часа)
Аватара пользователя
Стаж: 7 лет 8 месяцев
Сообщений: 90
Wow,Автор,спасибо большое) оч ждал...жалею,что не пошёл в кино :dan_ser:
Не в сети
Профиль  
 Добавлено: 2011-08-31 11:01 (спустя 3 дня)
Аватара пользователя
Стаж: 7 лет 4 месяца
Возраст: 25
Сообщений: 13
Лайков: 1
А я не жалею, что в кино не пошел.

A-styler:

Да вот только из-за его игры и стоит качать, сдулись пираты.
Уже не цепляет так, как первые части.
Не в сети
Профиль  
 Добавлено: 2011-08-31 23:04 (спустя 12 часов)
Стаж: 5 лет 11 месяцев
Сообщений: 1
сласибо
Не в сети
Профиль  
 Добавлено: 2011-09-05 10:25 (спустя 4 дня)
Top-seeder
Аватара пользователя
Стаж: 6 лет 10 месяцев
Возраст: 28
Сообщений: 280
Спасибок: 606
Фильм превзошёл все мои ожидания....
Мне думалось что пираты уже не те... Что всё уже ушло как бывает с большинством картин(продолжений).
Ан нет фильм довольна таки не плох.
Джонни Депп как всегда на высоте!
А задумка с русалками вообще шик :co_ol:
Фильм мне очень понравился. Конечно ни как первые 3,но всё же!
Автору спасибо за релиз!
:)
_________________

Изображение
Приму в дар,или куплю радиотехнику(усилители,колонки)
Изображение
Изображение
Не в сети
Профиль  
Начать новую темуОтветить на тему  [ Сообщений: 12 ] 
Вы не можете начинать темы
Вы не можете отвечать на сообщения
Вы не можете редактировать свои сообщения
Вы не можете удалять свои сообщения