Правила форума

  • В этом разделе создание новых тем Запрещено.
  • Для создания новых тем пользуйтесь Корневым разделом DVD и HD фильмы.
Начать новую темуОтветить на тему  [ 1 сообщение ] 
Торрент файл
Размер: 9.53 GB • Зарегистрирован: 3 года • Статус: Проверено
Скачан: 2 раза • Желающих скачать: 0 • Поблагодарили: 2 раза
 Раздают: 0  |  0 KB/s  ]   Качают: 0  |  0 KB/s  ] 
 Полного источника не было 1 месяц 18 дней 
Сообщения
 Добавлено: 2013-11-24 02:25
Модератор релиз-группы
Аватара пользователя
Стаж: 7 лет 8 месяцев
Возраст: 29
Сообщений: 9789
Спасибок: 23731
Лайков: 103
Изображение

Письма к Джульетте
Letters to Juliet


Год выпуска: 2010
Страна: США
Слоган: «А вдруг у тебя есть ещё один шанс найти настоящую любовь?»
Жанр: драма, мелодрама, комедия
Продолжительность: 01:45:23
Перевод: Профессиональный (полное дублирование)
Режиссер: Гари Виник
Сценарий: Хосе Ривера, Тим Салливан
Продюсер: Эллен Баркин, Марк Кантон, Эрик Фейг, Кэролайн Каплан, Патрик Ваксбергер
Оператор: Марко Понтекорво
Композитор: Андреа Гуэрра
В ролях: Аманда Сайфред, Кристофер Иган, Ванесса Редгрейв, Гаэль Гарсиа Берналь, Франко Неро, Луиза Раньери, Марина Массирони, Лидия Бионди, Милена Вукотич, Марсия ДеБонис, Джордано Форменти, Паоло Арведи
Бюджет: $30 000 000
Сборы в США: $53 032 453
Сборы в России: $907 973
Сборы в мире: $79 181 750
Мировая премьера: 25 апреля 2010
Релиз на DVD: 23 сентября 2010, «Парадиз Медиа»
Релиз на Blu-ray: 23 сентября 2010, «Парадиз Медиа»
Описание: Верона - город любви, родина Ромео и Джульетты - навсегда меняет жизни тех, кто ступает на ее улицы. Молодая американка София оказывается в Вероне в группе волонтеров, отвечающих на письма, адресованные Джульетте. Однажды к ней в руки попадает затерявшееся с начала 60-х письмо, в котором некая Клэр Смиф пишет о своей безумной любви. Растроганная София разыскивает пожилую англичанку и вдохновляет ее приехать в Италию на поиски давно потерянного возлюбленного. Респектабельный внук, сопровождающий леди в поездке, против авантюрной идеи, но ему очень нравится София...

Изображение User Rating: 7.117 (25 317)
Изображение User Rating: 6.30 (45 206)
MPAA: PG - Рекомендуется присутствие родителей
Раздача группы: Изображение
Качество: BDRip, 1080p
Формат: MKV
Видео: AVC; 1920x818 (2.35:1); 10724 Kbps; 23,976 fps; 0,285 bit/pixel
Аудио №1: русский; AC3; 384 Kbps; CBR; 6 ch
Аудио №2: английский; DTS; 1510 Kbps; CBR; 6 ch; 24 bit
Аудио №3: английский; Vorbis; 64 Kbps; 2 ch

Субтитры №1: русские
Субтитры №2: английские
Субтитры №3: английские

mediainfo
Общее
Уникальный идентификатор : 241216027980220746958610858253950057822 (0xB5788462FB0F42AD80A7F6D2D546FD5E)
Полное имя : D:\TORRENT\Pisma.k.Dzhuljette.[R.G.Daredevil].mkv
Формат : Matroska
Размер файла : 9,53 Гбайт
Продолжительность : 1 ч. 45 м.
Общий поток : 12,9 Мбит/сек
Название фильма : --SCHUMAHER--
Дата кодирования : UTC 2010-09-19 15:27:42
Программа кодирования : mkvmerge v3.4.0 ('Rapunzel') сборка от May 15 2010 09:38:20
Библиотека кодирования : libebml v0.8.0 + libmatroska v0.9.0

Видео
Идентификатор : 1
Формат : AVC
Формат/Информация : Advanced Video Codec
Профиль формата : High@L4.1
Параметр CABAC формата : Да
Параметр ReFrames формата : 5 кадров
Идентификатор кодека : V_MPEG4/ISO/AVC
Продолжительность : 1 ч. 45 м.
Битрейт : 11,0 Мбит/сек
Ширина : 1920 пикс.
Высота : 818 пикс.
Соотношение сторон : 2,35:1
Частота кадров : 23,976 кадр/сек
Цветовое пространство : YUV
Подвыборка цветности : 4:2:0
Битовая глубина : 8 бит
Тип развёртки : Прогрессивная
Бит/(Пиксели*Кадры) : 0.292
Размер потока : 7,90 Гбайт (83%)
Библиотека кодирования : x264 core 104 r1713 c276662
Настройки программы : cabac=1 / ref=5 / deblock=1:-3:-3 / analyse=0x3:0x113 / me=tesa / subme=10 / psy=1 / psy_rd=1.00:0.00 / mixed_ref=1 / me_range=16 / chroma_me=1 / trellis=2 / 8x8dct=1 / cqm=0 / deadzone=21,11 / fast_pskip=0 / chroma_qp_offset=-2 / threads=6 / sliced_threads=0 / nr=0 / decimate=1 / interlaced=0 / constrained_intra=0 / bframes=5 / b_pyramid=2 / b_adapt=2 / b_bias=0 / direct=3 / weightb=1 / open_gop=1 / weightp=2 / keyint=250 / keyint_min=23 / scenecut=40 / intra_refresh=0 / rc=2pass / mbtree=0 / bitrate=11000 / ratetol=1.0 / qcomp=0.60 / qpmin=10 / qpmax=51 / qpstep=4 / cplxblur=20.0 / qblur=0.5 / ip_ratio=1.40 / pb_ratio=1.30 / aq=1:0.80
Язык : English

Аудио #1
Идентификатор : 2
Формат : AC-3
Формат/Информация : Audio Coding 3
Расширение режима : CM (complete main)
Идентификатор кодека : A_AC3
Продолжительность : 1 ч. 45 м.
Вид битрейта : Постоянный
Битрейт : 384 Кбит/сек
Каналы : 6 каналов
Расположение каналов : Front: L C R, Side: L R, LFE
Частота : 48,0 КГц
Битовая глубина : 16 бит
Метод сжатия : С потерями
Размер потока : 289 Мбайт (3%)
Язык : Russian

Аудио #2
Идентификатор : 3
Формат : DTS
Формат/Информация : Digital Theater Systems
Идентификатор кодека : A_DTS
Продолжительность : 1 ч. 45 м.
Вид битрейта : Постоянный
Битрейт : 1510 Кбит/сек
Каналы : 6 каналов
Расположение каналов : Front: L C R, Side: L R, LFE
Частота : 48,0 КГц
Битовая глубина : 24 бит
Метод сжатия : С потерями
Размер потока : 1,11 Гбайт (12%)
Язык : English

Аудио #3
Идентификатор : 4
Формат : Vorbis
Параметр Floor формата : 1
Идентификатор кодека : A_VORBIS
Продолжительность : 1 ч. 45 м.
Битрейт : 64,0 Кбит/сек
Каналы : 2 канала
Частота : 48,0 КГц
Метод сжатия : С потерями
Размер потока : 48,2 Мбайт (0%)
Заголовок : Commentary
Библиотека кодирования : libVorbis (Everywhere) (20100325 (Everywhere))
Язык : English

Текст #1
Идентификатор : 5
Формат : UTF-8
Идентификатор кодека : S_TEXT/UTF8
Идентификатор кодека/Информация : UTF-8 Plain Text
Язык : Russian

Текст #2
Идентификатор : 6
Формат : UTF-8
Идентификатор кодека : S_TEXT/UTF8
Идентификатор кодека/Информация : UTF-8 Plain Text
Язык : English

Текст #3
Идентификатор : 7
Формат : UTF-8
Идентификатор кодека : S_TEXT/UTF8
Идентификатор кодека/Информация : UTF-8 Plain Text
Заголовок : Commentary
Язык : English

Меню
00:00:00.000 : en:Fact Checker
00:06:27.012 : en:My Sweet Shopia
00:10:30.213 : en:The Secretaries Of Juliet
00:18:09.672 : en:The Most Amazing Day
00:26:17.201 : en:She's Come To Find Her Lorenzo
00:30:36.460 : en:A Story Worth Telling
00:33:54.950 : en:The First Lorenzo
00:40:29.510 : en:Life Is The Messy Bits
00:46:29.495 : en:I Have A Good Felling About This
00:52:34.943 : en:Do You Believe In Destiny?
00:57:49.800 : en:One Of The Great Joys In Life
01:03:22.382 : en:Charlie's Apology
01:07:39.764 : en:Carparzo Wine
01:15:08.963 : en:Don't Wait 50 Years Like I Did
01:21:20.709 : en:Going To Be Published
01:27:43.383 : en:The Wedding Ceremony
01:31:27.774 : en:What If...
01:35:06.784 : en:Made For Each Other


Свернуть
"Знаете ли Вы, что..."
  • Изначально Хью Дэнси должен был сыграть одну из ролей, но был заменен Гаэлем Гарсиа Берналем.
  • Для съемок фильма нужно было на два дня закрыть внутренний дворик Дома Джульетты, и киношникам пришлось три месяца уговаривать власти Вероны это сделать.
Свернуть
Скриншоты

Изображение
Изображение
Изображение
Изображение
Изображение
Изображение
Изображение
Изображение
Изображение
Свернуть


Тема поднималась пользователем volkov2009 2013-11-24 02:25.
Не в сети
Профиль  
Начать новую темуОтветить на тему  [ 1 сообщение ] 
Вы не можете начинать темы
Вы не можете отвечать на сообщения
Вы не можете редактировать свои сообщения
Вы не можете удалять свои сообщения