Правила форума

  • В этом разделе создание новых тем Запрещено.
  • Для создания новых тем пользуйтесь Корневым разделом DVD и HD фильмы.
Начать новую темуОтветить на тему  [ Сообщений: 2 ] 
Торрент файл
Размер: 4.69 GB • Зарегистрирован: 3 года 10 месяцев • Статус: Проверено
Скачан: 18 раз • Желающих скачать: 0 • Поблагодарили: 5 раз
 Раздают: 0  |  0 KB/s  ]   Качают: 0  |  0 KB/s  ] 
 Полного источника не было 1 год 6 месяцев 
Сообщения
 Добавлено: 2013-02-01 17:39
Модератор
Аватара пользователя
Стаж: 5 лет 8 месяцев
Сообщений: 6281
Спасибок: 17335
Лайков: 1633
План Б
The Back-up Plan

«Влюбиться. Выйти замуж. Родить ребёнка. Порядок произвольный.»

Изображение

Страна: Изображение США
Жанр: мелодрама, комедия
Год выпуска: 2010
Продолжительность: 01:44:17
Перевод: Профессиональный (полное дублирование) [Лицензия]
Режиссер: Алан Пол / Alan Poul
В ролях: Дженнифер Лопез (Zoe), Алекс О’Локлин (Stan), Михаэлла Уоткинс (Mona), Эрик Кристиан Олсен (Clive), Энтони Андерсон (Playground Dad), Норин ДеВулф (Daphne), Мелисса МакКарти (Carol), Том Босли (Arthur), Мэрибет Монро (Lori), Дэннил Эклс (Olivia), Роберт Клейн (Dr. Scott Harris), Линда Лавин (Nana)
Дублёры: Наталья Грачева (Zoe), Александр Коврижных (Stan), Татьяна Шитова (Mona), Евгений Вальц (Clive), Диомид Виноградов (Playground Dad), Екатерина Щанкина (Daphne), Юлия Черкасова (Carol), Артем Карапетян (Arthur), Ольга Зубкова (Lori), Олег Форостенко (Dr. Scott Harris), Светлана Старикова (Nana), Ирина Киреева (Tabitha)
Описание: Каждая женщина за 30, мечтающая стать матерью, должна иметь «План Б», и у одинокой Зои такой план был. Отчаявшись встретить своего суженого, она прибегла к деликатной процедуре по искусственному оплодотворению. И в тот самый день, когда тест на беременность показал положительный результат, она встретила Стэна. Вот только как рассказать ему о своём «интересном положении» и при этом не разрушить только что завязавшиеся отношения.
Изображение Изображение

MPAA: PG-13 - Детям до 13 лет просмотр не желателен
Качество: BDRip 720p
Формат: MKV
Видео: AVC, 1280x544 (2.35:1), 4492 kbps, 23,976 fps, 0,269 bpp
Аудио №1: русский / AC3 / 5.1 / 48 kHz / 448 kbps / 16 bit
Аудио №2: английский / DTS / 5.1 / 48 kHz / 1510 kbps / 24 bit
Субтитры: английские, английские (SDH)

Скриншоты
Изображение
Изображение
Изображение
Свернуть
Media Info
General
Unique ID : 193551324506082408896897071393822862885 (0x919CA110E7CF156BA2E58861D5F9EE25)
Complete name : D:\Back-up Plan.2010.BD.Rip720p.h264.Rus.Eng.mkv
Format : Matroska
Format version : Version 2
File size : 4.69 GiB
Duration : 1h 44mn
Overall bit rate : 6 442 Kbps
Encoded date : UTC 2010-08-04 01:52:35
Writing application : mkvmerge v3.4.0 ('Rapunzel') built on May 15 2010 09:38:20
Writing library : libebml v0.8.0 + libmatroska v0.9.0

Video
ID : 1
Format : AVC
Format/Info : Advanced Video Codec
Format profile : High@L4.1
Format settings, CABAC : Yes
Format settings, ReFrames : 5 frames
Codec ID : V_MPEG4/ISO/AVC
Duration : 1h 44mn
Bit rate : 4 492 Kbps
Width : 1 280 pixels
Height : 544 pixels
Display aspect ratio : 2.35:1
Frame rate : 23.976 fps
Color space : YUV
Chroma subsampling : 4:2:0
Bit depth : 8 bits
Scan type : Progressive
Bits/(Pixel*Frame) : 0.269
Stream size : 3.17 GiB (68%)
Writing library : x264 core 104 r1677 19df41a
Encoding settings : cabac=1 / ref=5 / deblock=1:0:0 / analyse=0x3:0x113 / me=umh / subme=7 / psy=1 / psy_rd=1.00:0.00 / mixed_ref=1 / me_range=16 / chroma_me=1 / trellis=1 / 8x8dct=1 / cqm=0 / deadzone=21,11 / fast_pskip=1 / chroma_qp_offset=-2 / threads=6 / sliced_threads=0 / nr=0 / decimate=1 / interlaced=0 / constrained_intra=0 / bframes=3 / b_pyramid=2 / b_adapt=1 / b_bias=0 / direct=1 / weightb=1 / open_gop=0 / weightp=2 / keyint=250 / keyint_min=23 / scenecut=40 / intra_refresh=0 / rc_lookahead=40 / rc=2pass / mbtree=1 / bitrate=4492 / ratetol=1.0 / qcomp=0.60 / qpmin=10 / qpmax=51 / qpstep=4 / cplxblur=20.0 / qblur=0.5 / ip_ratio=1.40 / aq=1:1.00
Language : English
Default : Yes
Forced : No

Audio #1
ID : 2
Format : AC-3
Format/Info : Audio Coding 3
Mode extension : CM (complete main)
Codec ID : A_AC3
Duration : 1h 44mn
Bit rate mode : Constant
Bit rate : 448 Kbps
Channel(s) : 6 channels
Channel positions : Front: L C R, Side: L R, LFE
Sampling rate : 48.0 KHz
Bit depth : 16 bits
Compression mode : Lossy
Stream size : 334 MiB (7%)
Title : Dublyazh AC3 5.1 448 kbps
Language : Russian
Default : Yes
Forced : No

Audio #2
ID : 3
Format : DTS
Format/Info : Digital Theater Systems
Codec ID : A_DTS
Duration : 1h 44mn
Bit rate mode : Constant
Bit rate : 1 510 Kbps
Channel(s) : 6 channels
Channel positions : Front: L C R, Side: L R, LFE
Sampling rate : 48.0 KHz
Bit depth : 24 bits
Compression mode : Lossy
Stream size : 1.10 GiB (23%)
Title : DTS 5.1 1536 kbps
Language : English
Default : No
Forced : No

Text #1
ID : 4
Format : UTF-8
Codec ID : S_TEXT/UTF8
Codec ID/Info : UTF-8 Plain Text
Language : English
Default : No
Forced : No

Text #2
ID : 5
Format : UTF-8
Codec ID : S_TEXT/UTF8
Codec ID/Info : UTF-8 Plain Text
Title : SDH
Language : English
Default : No
Forced : No
Свернуть

_________________
Изображение Изображение Изображение
Не в сети
Профиль  
 Добавлено: 2015-02-09 16:35 (спустя 2 года)
Модератор
Аватара пользователя
Стаж: 5 лет 8 месяцев
Сообщений: 6281
Спасибок: 17335
Лайков: 1633
:)
_________________
Изображение Изображение Изображение
Не в сети
Профиль  
Начать новую темуОтветить на тему  [ Сообщений: 2 ] 
Вы не можете начинать темы
Вы не можете отвечать на сообщения
Вы не можете редактировать свои сообщения
Вы не можете удалять свои сообщения