Правила форума

  • В этом разделе создание новых тем Запрещено.
  • Для создания новых тем пользуйтесь Корневым разделом DVD и HD фильмы.
Начать новую темуОтветить на тему  [ Сообщений: 3 ] 
Торрент файл
Размер: 7.02 GB • Зарегистрирован: 5 лет 11 месяцев • Статус: T Временный релиз
Скачан: 70 раз • Желающих скачать: 0 • Поблагодарили: 11 раз
 Раздают: 0  |  0 KB/s  ]   Качают: 0  |  0 KB/s  ] 
 Полного источника не было 2 месяца 12 дней 
Сообщения
 Добавлено: 2010-12-10 09:46
Инквизитор
Аватара пользователя
Стаж: 8 лет 8 месяцев
Сообщений: 3753
Спасибок: 28359
Лайков: 9
Изображение

Планета Ка-Пэкс / K-PAX


Год выпуска: 2001
Страна: США, Германия
Слоган: «Change the way you look at the world.»
Жанр: фантастика, драма, детектив
Продолжительность: 02:00:18
Перевод: Профессиональный (многоголосый, закадровый)
Субтитры: русские, английские
Режиссер: Иен Софтли
Сценарий: Джин Брюэр, Чарльз Ливитт
Продюсер: Джин Брюэр, Роберт Ф. Коулсберри, Лоуренс Гордон
Оператор: Джон Мэтисон
Композитор: Эд Ширмёр
В ролях: Кевин Спэйси /Kevin Spacey/, Джефф Бриджес /Jeff Bridges/, Элфри Вудард /Alfre Woodard/, Мэри МакКормак /Mary McCormack/, Питер Герети , /Peter Gerety/, Соул Уильямс /Saul Williams/, Дэвид Патрик Келли /David Patrick Kelly/, Селия Уэстон /Celia Weston/, Аджей Найду /Ajay , Naidu/, Кончата Феррелл /Conchata Ferrell/, Мэри Мара /Mary Mara/, Джон Тоулз-Бей /John Toles-Bey/
Бюджет: $68 000 000
Сборы в США: $50 338 485
Сборы в мире: $65 001 485
Описание: В Манхэттенский психиатрический институт привозят странного человека в черных очках. Он зовет себя Протом и утверждает, что его родина - далекая планета Ка-Пэкс, откуда он мгновенно перенесся на Землю в луче света. Несмотря на все усилия, опытному доктору Пауэллу не удается разгадать загадку таинственного пациента, который охотно и весьма убедительно доказывает всем свое внеземное происхождение и заранее назначает дату своего возвращения на Ка-Пэкс.
Вскоре Марка Пауэлла, так и не сумевшего приоткрыть тайну личности своего самого удивительного подопечного, начинает тревожить невероятная, но навязчивая мысль: может быть, Прот вовсе не сумасшедший и в его словах есть доля правды…

Изображение
MPAA: Изображение
Мировая премьера: 22 октября 2001
Релиз на DVD: 31 марта 2009, «Парадиз-ВC»
Релиз группы: Изображение
Раздача группы: Изображение
Качество: DTheaterRip
Формат: MKV
Видео кодек: H.264
Аудио кодек: AC3, DTS
Видео: 1280x544 (2.35:1); 6 961 Kbps; 23,976 fps; 0,406 bpp
• Аудио №1: Russian (MVO); AC3; 384 Kbps; CBR; 6 ch
• Аудио №2: Russian (Визгунов); AC3; 192 Kbps; CBR; 2 ch
• Аудио №3: English; DTS; 754 Kbps; CBR; 6 ch; 16 bit
• Аудио №4: English (Commentary track); Vorbis; 80 Kbps; CBR; 2 ch; 16 bit
M.I

Format : Matroska
File size : 7.02 GiB
Duration : 2h 0mn
Overall bit rate : 8 356 Kbps
Encoded date : UTC 2010-01-18 14:36:25
Writing application : mkvmerge v3.0.0 ('Hang up your Hang-Ups') built on Dec 12 2009 15:20:35
Writing library : libebml v0.7.9 + libmatroska v0.8.1
Video
ID : 1
Format : AVC
Format/Info : Advanced Video Codec
Format profile : High@L4.1
Format settings, CABAC : Yes
Format settings, ReFrames : 5 frames
Muxing mode : Container profile=Unknown@4.1
Codec ID : V_MPEG4/ISO/AVC
Duration : 2h 0mn
Bit rate : 6 779 Kbps
Nominal bit rate : 6 961 Kbps
Width : 1 280 pixels
Height : 544 pixels
Display aspect ratio : 2.35:1
Frame rate : 23.976 fps
Resolution : 8 bits
Colorimetry : 4:2:0
Scan type : Progressive
Bits/(Pixel*Frame) : 0.406
Stream size : 5.69 GiB (81%)
Title : K-PAX (2001)
Writing library : x264 core 80 r1369M ec8e586
Encoding settings : cabac=1 / ref=5 / deblock=1:-3:-3 / analyse=0x3:0x113 / me=umh / subme=10 / psy=1 / psy_rd=1.2:0.0 / mixed_ref=1 / me_range=32 / chroma_me=1 / trellis=2 / 8x8dct=1 / cqm=0 / deadzone=21,11 / fast_pskip=0 / chroma_qp_offset=-2 / threads=6 / sliced_threads=0 / nr=0 / decimate=1 / mbaff=0 / constrained_intra=0 / bframes=6 / b_pyramid=0 / b_adapt=2 / b_bias=0 / direct=3 / wpredb=1 / wpredp=2 / keyint=250 / keyint_min=25 / scenecut=40 / rc=2pass / mbtree=0 / bitrate=6961 / ratetol=1.0 / qcomp=0.60 / qpmin=10 / qpmax=51 / qpstep=4 / cplxblur=20.0 / qblur=0.5 / ip_ratio=1.40 / pb_ratio=1.30 / aq=1:1.00
Language : English
Audio #1
ID : 2
Format : AC-3
Format/Info : Audio Coding 3
Codec ID : A_AC3
Duration : 2h 0mn
Bit rate mode : Constant
Bit rate : 384 Kbps
Channel(s) : 6 channels
Channel positions : Front: L C R, Surround: L R, LFE
Sampling rate : 48.0 KHz
Stream size : 330 MiB (5%)
Title : rus AC3 5.1 MVO 384kbps
Language : Russian
Audio #2
ID : 3
Format : AC-3
Format/Info : Audio Coding 3
Codec ID : A_AC3
Duration : 2h 0mn
Bit rate mode : Constant
Bit rate : 192 Kbps
Channel(s) : 2 channels
Channel positions : L R
Sampling rate : 48.0 KHz
Stream size : 165 MiB (2%)
Title : rus AC3 2.0 AVO Vizgunov 192kbps
Language : Russian
Audio #3
ID : 4
Format : DTS
Format/Info : Digital Theater Systems
Codec ID : A_DTS
Duration : 2h 0mn
Bit rate mode : Constant
Bit rate : 755 Kbps
Channel(s) : 6 channels
Channel positions : Front: L C R, Surround: L R, LFE
Sampling rate : 48.0 KHz
Resolution : 16 bits
Stream size : 649 MiB (9%)
Title : DTS 5.1 768kbps
Language : English
Audio #4
ID : 5
Format : Vorbis
Format settings, Floor : 1
Codec ID : A_VORBIS
Duration : 2h 0mn
Bit rate mode : Constant
Bit rate : 80.0 Kbps
Channel(s) : 2 channels
Sampling rate : 48.0 KHz
Stream size : 68.8 MiB (1%)
Title : Commentary Track - Vorbis 80kbps
Writing library : libVorbis 1.2 (UTC 2007-06-22)
Language : English
Text #1
ID : 6
Format : UTF-8
Codec ID : S_TEXT/UTF8
Codec ID/Info : UTF-8 Plain Text
Title : rus
Language : Russian
Text #2
ID : 7
Format : UTF-8
Codec ID : S_TEXT/UTF8
Codec ID/Info : UTF-8 Plain Text
Title : eng
Language : English
Свернуть
"Знаете ли Вы, что..."
  • Изначально на роль Прота планировали взять Уилла Смита, а Кевину Спейси отдать роль доктора Пауэлла.
Свернуть

Скриншоты

Изображение
Изображение
Изображение
Изображение
Свернуть
Не в сети
Профиль  
 Добавлено: 2010-12-11 20:59 (спустя 1 день 11 часов)
Аватара пользователя
Стаж: 8 лет 7 месяцев
Сообщений: 2901
Спасибок: 4796
Лайков: 12

Биг:

Видео: 1280x544 (2.35:1); 6 961 Kbps; 23,976 fps; 0,406 bpp
0,406 бит/пиксель? форменное безобразие.
и почему кодек видео не указан? (я хоть и догадываюсь, что, скорее всего, x264, но для проформы надо было указать)
_________________
Изображение Изображение
Не в сети
Профиль  
 Добавлено: 2014-01-22 14:36 (спустя 3 года 1 месяц)
Аватара пользователя
Стаж: 7 лет 10 месяцев
Сообщений: 64
Лайков: 2
Раздайте пожалуйста )
Не в сети
Профиль  
Начать новую темуОтветить на тему  [ Сообщений: 3 ] 
Вы не можете начинать темы
Вы не можете отвечать на сообщения
Вы не можете редактировать свои сообщения
Вы не можете удалять свои сообщения