Правила форума

  • В этом разделе создание новых тем Запрещено.
  • Для создания новых тем пользуйтесь Корневым разделом DVD и HD фильмы.
Начать новую темуОтветить на тему  [ Сообщений: 3 ] 
Торрент файл
Размер: 6.87 GB • Зарегистрирован: 2 года 2 месяца • Статус: Проверено
Скачан: 145 раз • Желающих скачать: 0 • Поблагодарили: 46 раз
 Раздают: 0  |  0 KB/s  ]   Качают: 0  |  0 KB/s  ] 
 Полного источника не было 5 дней 
Сообщения
 Добавлено: 2014-09-10 19:05
DVD Release Group
Аватара пользователя
Стаж: 7 лет 1 месяц
Сообщений: 3546
Спасибок: 246983
Лайков: 1018
Пластик

Plastic


Изображение


Год выпуска: 2014
Страна: Великобритания
Жанр: Боевик, драма, комедия, криминал
Продолжительность: 01:41:57
Перевод: Профессиональный (полное дублирование)
Субтитры: Английские
Режиссер: Джулиан Джилби
В ролях: Эдвард Спелирс, Уилл Поултер, Элфи Оуэн-Аллен, Себастьян Де Соуза, Эмма Ригби, Томас Кречман, Грэм МакТавиш, Малез Джоу, Терри Стоун, Эшли Чин
Описание: Фильм основан на реальной истории. Банде друзей удалось проникнуть в одну из самых больших в мире компаний, которая работает с кредитными картами. Им удается провернуть одну из самых дерзких краж в британской истории.
Изображение
Sample:
http://multi-up.com/998160
Качество: BDRip 1080p
Формат: MKV
Видео кодек: H.264
Аудио кодек: AC3, DTS
Видео: 1920x800 24fps 8437kbps
Аудио:
Аудио Rus: AC3 48kHz 6ch 448kbps
Аудио Eng: DTS 48kHz 6ch 768kbps
"MediaInfo"
Формат : Matroska
Версия формата : Version 4 / Version 2
Размер файла : 6,87 Гбайт
Продолжительность : 1 ч. 41 м.
Общий поток : 9648 Кбит/сек
Дата кодирования : UTC 2014-09-10 10:32:18
Программа кодирования : mkvmerge v6.1.0 ('Old Devil') built on Mar 4 2013 09:10:42
Библиотека кодирования : libebml v1.3.0 + libmatroska v1.4.0

Видео
Идентификатор : 1
Формат : AVC
Формат/Информация : Advanced Video Codec
Профиль формата : High@L4.1
Параметр CABAC формата : Да
Параметр ReFrames формата : 5 кадров
Идентификатор кодека : V_MPEG4/ISO/AVC
Продолжительность : 1 ч. 41 м.
Битрейт : 8437 Кбит/сек
Ширина : 1920 пикселей
Высота : 800 пикселей
Соотношение сторон : 2,40:1
Режим частоты кадров : Постоянный
Частота кадров : 24,000 кадра/сек
Цветовое пространство : YUV
Субдискретизация насыщенности : 4:2:0
Битовая глубина : 8 бит
Тип развёртки : Прогрессивная
Бит/(Пиксели*Кадры) : 0.229
Размер потока : 5,87 Гбайт (85%)
Библиотека кодирования : x264 core 142 r2453 ea0ca51
Настройки программы : cabac=1 / ref=5 / deblock=1:0:0 / analyse=0x3:0x133 / me=umh / subme=8 / psy=1 / psy_rd=1.00:0.00 / mixed_ref=1 / me_range=16 / chroma_me=1 / trellis=1 / 8x8dct=1 / cqm=0 / deadzone=21,11 / fast_pskip=0 / chroma_qp_offset=-2 / threads=12 / lookahead_threads=2 / sliced_threads=0 / nr=0 / decimate=1 / interlaced=0 / bluray_compat=0 / constrained_intra=0 / bframes=3 / b_pyramid=2 / b_adapt=2 / b_bias=0 / direct=3 / weightb=1 / open_gop=0 / weightp=2 / keyint=250 / keyint_min=24 / scenecut=40 / intra_refresh=0 / rc_lookahead=50 / rc=2pass / mbtree=1 / bitrate=8437 / ratetol=1.0 / qcomp=0.60 / qpmin=0 / qpmax=69 / qpstep=4 / cplxblur=20.0 / qblur=0.5 / ip_ratio=1.40 / aq=1:1.00
Язык : English
Default : Да
Forced : Нет

Аудио #1
Идентификатор : 2
Формат : AC-3
Формат/Информация : Audio Coding 3
Расширение режима : CM (complete main)
Параметр Endianness формата : Big
Идентификатор кодека : A_AC3
Продолжительность : 1 ч. 41 м.
Вид битрейта : Постоянный
Битрейт : 448 Кбит/сек
Каналы : 6 каналов
Расположение каналов : Front: L C R, Side: L R, LFE
Частота : 48,0 КГц
Битовая глубина : 16 бит
Метод сжатия : С потерями
Размер потока : 327 Мбайт (5%)
Заголовок : Дублированное [Лицензия]
Язык : Russian
Default : Да
Forced : Нет

Аудио #2
Идентификатор : 3
Формат : DTS
Формат/Информация : Digital Theater Systems
Режим : 16
Параметр Endianness формата : Big
Идентификатор кодека : A_DTS
Продолжительность : 1 ч. 41 м.
Вид битрейта : Постоянный
Битрейт : 768 Кбит/сек
Каналы : 6 каналов
Расположение каналов : Front: L C R, Side: L R, LFE
Частота : 48,0 КГц
Битовая глубина : 24 бит
Метод сжатия : С потерями
Размер потока : 560 Мбайт (8%)
Язык : English
Default : Нет
Forced : Нет

Текст
Идентификатор : 4
Формат : UTF-8
Идентификатор кодека : S_TEXT/UTF8
Идентификатор кодека/Информация : UTF-8 Plain Text
Язык : English
Default : Нет
Forced : Нет

Меню
00:00:00.000 : en:00:00:00.000
00:07:26.917 : en:00:07:26.917
00:16:18.625 : en:00:16:18.625
00:26:26.708 : en:00:26:26.708
00:33:36.125 : en:00:33:36.125
00:41:20.292 : en:00:41:20.292
00:50:39.750 : en:00:50:39.750
00:58:34.458 : en:00:58:34.458
01:04:23.208 : en:01:04:23.208
01:14:56.708 : en:01:14:56.708
01:21:30.833 : en:01:21:30.833
01:32:08.208 : en:01:32:08.208
Свернуть

"Скриншоты"
Изображение
Изображение
Изображение
Изображение
Свернуть
 Дракарчег нравится это.
Не в сети
Профиль  
 Добавлено: 2014-09-12 16:11 (спустя 1 день 21 час)
Аватара пользователя
Стаж: 8 лет 9 месяцев
Сообщений: 1170
Спасибок: 1294
Лайков: 7
название цепляет)
Не в сети
Профиль  
 Добавлено: 2014-10-18 22:48 (спустя 1 месяц 6 дней)
Кинокомментатор
Аватара пользователя
Стаж: 9 лет 1 месяц
Сообщений: 1332
Лайков: 54
а фильм то не плох) всё живо и динамично!) даже как то по молодёжному) ещё радует что фильм британский) но... похож он всё же на американское кино)) смотреть стоит!)
7/10
_________________
Я ВКонтакте
Не в сети
Профиль  
Начать новую темуОтветить на тему  [ Сообщений: 3 ] 
Вы не можете начинать темы
Вы не можете отвечать на сообщения
Вы не можете редактировать свои сообщения
Вы не можете удалять свои сообщения