Правила форума

  • В этом разделе создание новых тем Запрещено.
  • Для создания новых тем пользуйтесь Корневым разделом DVD и HD фильмы.
Начать новую темуОтветить на тему  [ Сообщений: 8 ] 
Торрент файл
Размер: 6.16 GB • Зарегистрирован: 3 года • Статус: Проверено
Скачан: 154 раза • Желающих скачать: 0 • Поблагодарили: 60 раз
 Раздают: 2  |  0 KB/s  ]   Качают: 0  |  0 KB/s  ] 
Сообщения
 Добавлено: 2013-11-18 21:10
Аватара пользователя
Стаж: 3 года 6 месяцев
Сообщений: 175
Спасибок: 4258
Лайков: 29
Пленницы / Prisoners

Изображение


Год выпуска: 2013
Страна: США (Alcon Entertainment, 8:38 Productions, Madhouse Entertainment)
Слоган: «Нельзя терять ни минуты»
Жанр: Триллер, Драма, Криминал
Продолжительность: 02:33:09
Перевод: Профессиональный (многоголосый закадровый)(BaibaKo)
Субтитры: Вшитые отключаемые
Язык субтитров: Английский, Французкий

Режиссёр: Дени Вильнёв
Продюсер: Кира Дэвис, Бродерик Джонсон, Адам Колбеннер
В ролях: Хью Джекман, Джейк Джилленхол, Виола Дэвис, Мария Белло, Терренс Ховард, Мелисса Лео, Пол Дано, Дилан Миннетт, Зои Борд, Эрин Герасимович
Описание: Келлер Довер сталкивается с самым большим кошмаром каждого родителя: его шестилетняя дочь пропала вместе с подругой. Время бежит, девочки не возвращаются, и паника достигает своего предела. Единственная зацепка — обветшалый фургончик, который был припаркован на их улице, когда девочки играли во дворе. Детектив Локки, возглавляющий расследование, арестовывает его водителя, Алекса Джонса, но вскоре полиция вынуждена его отпустить из-за нехватки улик. Полиция медлит, а обезумевший от горя отец берет дело в свои руки. Но как далеко готов зайти Келлер в поисках девочек?

Мировая премьера: 30 августа 2013
Премьера в России: 26 сентября 2013, «West»
Бюджет: $46 000 000
Изображение
Изображение

Качество: WEB-DL 1080p
Формат: MKV
Видео кодек: MPEG-4 AVC/H.264
Аудио кодек: AC3 (Dolby Digital)
Видео: 1916x1078, ~4993 Mbps, AVC/H.264
Аудио #1: Dolby Digital Audio 384 kbps 5.1 / 48 kHz / 16 bits /Английский/
Аудио #2: Dolby Digital Audio 384 kbps 5.1 / 48 kHz / 16 bits /Русский/
Изображение
Ошибки в фильме
• Когда Холли направляет пистолет на Келлера на кухне, она эффектно взводит курок. Однако в следующем кадре, когда показывают пистолет крупным планом, видно, что курок не взведен.

• Действие фильма разворачивается в Пенсильвании, но при этом есть рекламные щиты юридической фирмы из Атланты — «Morgan and Morgan» — расположенные над винным магазином.

• Ближе к концу фильма, когда папа идет в дом миссис Джонс, на улице день. После того как они через короткий промежуток времени выходят на улицу, там уже ночь.

• Когда Келлер находится в винном магазине, на улице идет дождь. Когда он идет домой из магазина, все вокруг покрыто снегом. Когда он входит в свой дом и ложится в кровать, на улице снова идет дождь, а на следующее утро все снова покрыто снегом.
Свернуть

Скриншоты
Изображение
Изображение
Изображение
Изображение
Изображение
Свернуть

Знаете ли Вы, что...
По карточкам детектива Локи можно узнать его полное имя — Дэвид Уэйн Локи.

Съёмки проходили в Атланте, Конайерс (Джорджия) и Дерби (Коннектикут).

В этом фильме Хью Джекман играет роль отца, чью дочь похищают. Его кандидатура рассматривалась на аналогичную роль в фильме «Милые кости» (2009), но там вместо него взяли Марка Уолберга, который мог сыграть главную роль в этом фильме.

Изначально планировалось, что главные роли исполнят Марк Уолберг и Кристиан Бэйл, а режиссерское кресло займет Брайан Сингер.

Хью Джекман был приписан к проекту еще когда режиссером картины значился Антуан Фукуа. Впоследствии оба выбыли из проекта. После нескольких лет разработок Хью Джекман снова подписался на главную роль.

Леонардо ДиКаприо долгое время значился исполнителем главной роли, однако в конце концов выбыл из проекта.
Свернуть
MediaInfo
Общее
Уникальный идентификатор : 213257257107813243894009186316568892055 (0xA06FDA8E313B795F849F9ABE65FA1297)
Полное имя : Prisoners.2013.1080p.WEB-DL.mkv
Формат : Matroska
Версия формата : Version 2
Размер файла : 6,16 Гбайт
Продолжительность : 2 ч. 33 м.
Общий поток : 5762 Кбит/сек
Название фильма : Prisoners.2013.1080p.WEB-DL-Feel_1984
Дата кодирования : UTC 2013-11-17 20:42:28
Программа кодирования : mkvmerge v4.3.0 ('Escape from the Island') сборка от Sep 5 2010 10:30:51
Библиотека кодирования : libebml v1.0.0 + libmatroska v1.0.0

Видео
Идентификатор : 1
Формат : AVC
Формат/Информация : Advanced Video Codec
Профиль формата : High@L4.0
Параметр CABAC формата : Да
Параметр ReFrames формата : 4 кадра
Режим смешивания : Header stripping
Идентификатор кодека : V_MPEG4/ISO/AVC
Продолжительность : 2 ч. 33 м.
Битрейт : 4879 Кбит/сек
Ширина : 1916 пикселей
Высота : 1078 пикселей
Соотношение сторон : 16:9
Соотношение сторон в оригинале : 16:9
Режим частоты кадров : Постоянный
Частота кадров : 23,976 кадра/сек
Цветовое пространство : YUV
Субдискретизация насыщенности : 4:2:0
Битовая глубина : 8 бит
Тип развёртки : Прогрессивная
Бит/(Пиксели*Кадры) : 0.099
Размер потока : 5,22 Гбайт (85%)
Язык : English
Default : Да
Forced : Нет
Основные цвета : BT.709
Характеристики трансфера : BT.709
Коэффициенты матрицы : BT.709

Аудио #1
Идентификатор : 2
Формат : AC-3
Формат/Информация : Audio Coding 3
Расширение режима : CM (complete main)
Параметр Endianness формата : Big
Режим смешивания : Header stripping
Идентификатор кодека : A_AC3
Продолжительность : 2 ч. 33 м.
Вид битрейта : Постоянный
Битрейт : 384 Кбит/сек
Каналы : 6 каналов
Расположение каналов : Front: L C R, Side: L R, LFE
Частота : 48,0 КГц
Битовая глубина : 16 бит
Метод сжатия : С потерями
Размер потока : 421 Мбайт (7%)
Язык : English
Default : Нет
Forced : Нет

Аудио #2
Идентификатор : 3
Формат : AC-3
Формат/Информация : Audio Coding 3
Расширение режима : CM (complete main)
Параметр Endianness формата : Big
Режим смешивания : Header stripping
Идентификатор кодека : A_AC3
Продолжительность : 2 ч. 33 м.
Вид битрейта : Постоянный
Битрейт : 384 Кбит/сек
Каналы : 6 каналов
Расположение каналов : Front: L C R, Side: L R, LFE
Частота : 48,0 КГц
Битовая глубина : 16 бит
Метод сжатия : С потерями
Размер потока : 421 Мбайт (7%)
Заголовок : Многоголосый закадровый, профессиональный (BaibaKo)
Язык : Russian
Default : Да
Forced : Нет

Текст #1
Идентификатор : 4
Формат : UTF-8
Идентификатор кодека : S_TEXT/UTF8
Идентификатор кодека/Информация : UTF-8 Plain Text
Язык : English
Default : Нет
Forced : Нет

Текст #2
Идентификатор : 5
Формат : UTF-8
Идентификатор кодека : S_TEXT/UTF8
Идентификатор кодека/Информация : UTF-8 Plain Text
Язык : French
Default : Нет
Forced : Нет

Меню
00:00:00.000 : en:1
00:08:50.000 : en:2
00:19:51.000 : en:3
00:30:18.000 : en:4
00:40:23.000 : en:5
00:49:36.000 : en:6
00:59:27.000 : en:7
01:08:24.000 : en:8
01:17:29.000 : en:9
01:29:17.000 : en:10
01:41:34.000 : en:11
01:51:37.000 : en:12
01:59:39.000 : en:13
02:11:46.000 : en:14
02:19:50.000 : en:15
02:25:53.000 : en:16
Свернуть
Не в сети
Профиль  
 Добавлено: 2013-11-23 12:36 (спустя 4 дня)
Аватара пользователя
Стаж: 3 года 2 месяца
Возраст: 26
Сообщений: 180
Спасибок: 95
Лайков: 3
нада попробовать, посмотреть, рейтинг не плохой :)
_________________
forza juve
Не в сети
Профиль  
 Добавлено: 2013-12-01 10:57 (спустя 7 дней)
Аватара пользователя
Стаж: 8 лет
Сообщений: 1390
Спасибок: 39
Лайков: 64
отличный фильм :co_ol:
Не в сети
Профиль  
 Добавлено: 2013-12-01 21:25 (спустя 10 часов)
Аватара пользователя
Стаж: 3 года 2 месяца
Возраст: 26
Сообщений: 180
Спасибок: 95
Лайков: 3
Хороший фильм, до последних минут было интересно. 9 из 10
_________________
forza juve
 DJoKeR777 нравится это.
Не в сети
Профиль  
 Добавлено: 2013-12-29 15:35 (спустя 27 дней)
Стаж: 4 года 1 месяц
Сообщений: 17
Дайте скорости, пожалуйста!!!
Не в сети
Профиль  
 Добавлено: 2014-08-20 22:02 (спустя 7 месяцев)
Аватара пользователя
Стаж: 7 лет 1 месяц
Возраст: 26
Сообщений: 51
Спасибок: 18
Лайков: 11
Фильм отличный. Действительно начинаешь переживать за героев, как тяжело родителям, они не знают , что им делать и хватаются за любую зацепку и боряться за своих детей. Порадовал Хью Джекман, отлично сыграл свою роль.
Не в сети
Профиль  
 Добавлено: 2014-08-24 11:56 (спустя 3 дня)
Кинокомментатор
Аватара пользователя
Стаж: 9 лет 1 месяц
Сообщений: 1332
Лайков: 54
а будет ли с переводом дубляжным?
Не в сети
Профиль  
 Добавлено: 2014-09-03 14:55 (спустя 10 дней)
Стаж: 7 лет 5 месяцев
Сообщений: 17
Отличный фильм!)))
Не в сети
Профиль  
Начать новую темуОтветить на тему  [ Сообщений: 8 ] 
Вы не можете начинать темы
Вы не можете отвечать на сообщения
Вы не можете редактировать свои сообщения
Вы не можете удалять свои сообщения
cron