Правила форума

  • В этом разделе создание новых тем Запрещено.
  • Для создания новых тем пользуйтесь Корневым разделом DVD и HD фильмы.
Начать новую темуОтветить на тему  [ 1 сообщение ] 
Торрент файл
Размер: 3.2 GB • Зарегистрирован: 3 года 10 месяцев • Статус: Проверено
Скачан: 7 раз • Желающих скачать: 0 • Поблагодарили: 1 раз
 Раздают: 0  |  0 KB/s  ]   Качают: 0  |  0 KB/s  ] 
 Полного источника не было 3 года 2 месяца 
Сообщения
 Добавлено: 2013-02-06 08:12
Аватара пользователя
Стаж: 8 лет 4 месяца
Сообщений: 100
Спасибок: 1653
Побег / La Carapate

Изображение


Год выпуска: 1978
Страна: Франция
Жанр: Комедия
Продолжительность: 01:39:51
Версия фильма: Unrated / Полная версия
Перевод: Профессиональный (многоголосый закадровый) + Профессиональный (дубляж) + Оригинальная звуковая дорожка
Субтитры: Русские

Режиссёр: Жерар Ури
В ролях: Пьер Ришар, Виктор Лану, Раймон Бюссьер, Клод Броссе, Жак Франц, Клер Ришар, Бланш Равалек, Бернар Гранже, Робер Дальбан, Адриен Кайла-Легран
Описание: Адвокат Дюрок навещает своего клиента в камере смертников. Внезапно начинается массовый бунт, и недотепа бежит вместе с остальными заключенными, спасаясь от пуль полицейских, вместе со своим подзащитным Голаром, которого полиция считает зачинщиком всех беспорядков. Бесчисленные погони, веселые и пикантные ситуации, общая опасность сближают героев и они становятся друзьями...
Доп.информация: Картинка гораздо лучше DVD, но есть мелкие "шумы".
Рейтинг MPAA: Рейтинг R (Подростки до 17 лет допускаются на фильм только в сопровождении одного из родителей)
Изображение 7.803 (1347)
Изображение 5.80 (384)

Качество: WEB-DL 720p
Формат: MKV
Видео кодек: MPEG-4 AVC
Аудио кодек: AC3 (Dolby Digital)
Видео: MPEG-4 AVC, 4000 Кбит/с, 1202x720, 24 fps
Аудио #1: Russian: 48 kHz, AC3, 2/0 (L,R) ch, ~192.00 kbps avg [Профессиональный (многоголосый закадровый)]
Аудио #2: Russian: 48 kHz, AC3, 2/0 (L,R) ch, ~192.00 kbps avg [Профессиональный (дубляж)]
Аудио #3: French: 48 kHz, AAC, 2/0 (L,R) ch, ~160.00 kbps avg [Оригинальная звуковая дорожка]
Субтитры: Нет
Скриншоты
Изображение
Изображение
Изображение
Изображение
Изображение
Свернуть


Технические данные
General
Unique ID : 199549328123137922605688359264749770039 (0x961FCD79E95256D195142AC3B1D65537)
Complete name : C:\GIA\La carapate 720p WEB-DL.mkv
Format : Matroska
Format version : Version 4 / Version 2
File size : 3.20 GiB
Duration : 1h 39mn
Overall bit rate : 4 588 Kbps
Movie name : La Carapate (1978) - Release by xamster for HDCLUB
Encoded date : UTC 2010-02-22 21:41:31
Writing application : mkvmerge v5.9.0 ('On The Loose') built on Dec 9 2012 15:37:01
Writing library : libebml v1.3.0 + libmatroska v1.4.0

Video
ID : 1
Format : AVC
Format/Info : Advanced Video Codec
Format profile : High@L3.1
Format settings, CABAC : No
Format settings, ReFrames : 2 frames
Codec ID : V_MPEG4/ISO/AVC
Duration : 1h 39mn
Width : 1 202 pixels
Height : 720 pixels
Display aspect ratio : 1.669
Frame rate mode : Constant
Frame rate : 24.000 fps
Color space : YUV
Chroma subsampling : 4:2:0
Bit depth : 8 bits
Scan type : Progressive
Title : Release by xamster for HDCLUB
Language : French
Default : Yes
Forced : No
Color primaries : BT.709
Transfer characteristics : BT.709
Matrix coefficients : BT.709

Audio #1
ID : 2
Format : AC-3
Format/Info : Audio Coding 3
Format profile : Dolby Digital
Mode extension : CM (complete main)
Format settings, Endianness : Big
Codec ID : A_AC3
Duration : 1h 39mn
Bit rate mode : Constant
Bit rate : 192 Kbps
Channel(s) : 2 channels
Channel positions : Front: L R
Sampling rate : 48.0 KHz
Bit depth : 16 bits
Compression mode : Lossy
Stream size : 137 MiB (4%)
Title : AC3 48kHz 2.0 192 kbps MVO Soyuz Video
Language : Russian
Default : Yes
Forced : No

Audio #2
ID : 3
Format : AC-3
Format/Info : Audio Coding 3
Format profile : Dolby Digital
Mode extension : CM (complete main)
Format settings, Endianness : Big
Codec ID : A_AC3
Duration : 1h 39mn
Bit rate mode : Constant
Bit rate : 192 Kbps
Channel(s) : 2 channels
Channel positions : Front: L R
Sampling rate : 48.0 KHz
Bit depth : 16 bits
Compression mode : Lossy
Stream size : 137 MiB (4%)
Title : AC3 48kHz 2.0 192 kbps Dub
Language : Russian
Default : No
Forced : No

Audio #3
ID : 4
Format : AAC
Format/Info : Advanced Audio Codec
Format profile : LC
Codec ID : A_AAC
Duration : 1h 39mn
Channel(s) : 2 channels
Channel positions : Front: L R
Sampling rate : 48.0 KHz
Compression mode : Lossy
Title : AAC 2.0 VBR Original
Language : French
Default : No
Forced : No

Text
ID : 5
Format : UTF-8
Codec ID : S_TEXT/UTF8
Codec ID/Info : UTF-8 Plain Text
Title : Russian
Language : Russian
Default : No
Forced : No

Menu
00:00:00.000 : en:Chapitre 1
00:04:37.000 : en:Chapitre 2
00:07:36.000 : en:Chapitre 3
00:12:43.000 : en:Chapitre 4
00:17:01.000 : en:Chapitre 5
00:19:35.000 : en:Chapitre 6
00:25:00.000 : en:Chapitre 7
00:28:11.000 : en:Chapitre 8
00:32:21.000 : en:Chapitre 9
00:41:36.000 : en:Chapitre 10
00:47:55.000 : en:Chapitre 11
00:52:32.000 : en:Chapitre 12
00:55:15.000 : en:Chapitre 13
00:58:52.000 : en:Chapitre 14
01:02:35.000 : en:Chapitre 15
01:06:09.000 : en:Chapitre 16
01:10:38.000 : en:Chapitre 17
01:13:55.000 : en:Chapitre 18
01:18:11.000 : en:Chapitre 19
01:22:25.000 : en:Chapitre 20
01:26:29.000 : en:Chapitre 21
01:30:22.000 : en:Chapitre 22
01:34:04.000 : en:Chapitre 23
01:37:34.000 : en:Chapitre 24
Свернуть

Знаете ли Вы, что...
Так как в советское время многие фильмы нещадно кромсались цензорами, то некоторый эпизоды русского дубляжа переведены многоголосым переводом.
Свернуть
_________________
Входи тихо, проси мало, говори кратко, уходи быстро...
Не в сети
Профиль  
Начать новую темуОтветить на тему  [ 1 сообщение ] 
Вы не можете начинать темы
Вы не можете отвечать на сообщения
Вы не можете редактировать свои сообщения
Вы не можете удалять свои сообщения