Правила форума

  • В этом разделе создание новых тем Запрещено.
  • Для создания новых тем пользуйтесь Корневым разделом DVD и HD фильмы.
Начать новую темуОтветить на тему  [ Сообщений: 4 ] 
Торрент файл
Размер: 6.26 GB • Зарегистрирован: 3 года 6 месяцев • Статус: Проверено
Скачан: 114 раз • Желающих скачать: 0 • Поблагодарили: 26 раз
 Раздают: 0  |  0 KB/s  ]   Качают: 0  |  0 KB/s  ] 
 Полного источника не было 4 часа 
Сообщения
 Добавлено: 2013-05-08 06:28
DVD Release Group
Аватара пользователя
Стаж: 7 лет 1 месяц
Сообщений: 3542
Спасибок: 246639
Лайков: 1016
Побочный эффект

Side Effects


Изображение


Год выпуска: 2013
Страна: США
Жанр: Триллер, драма, криминал
Продолжительность: 01:46:22
Перевод: Профессиональный (полное дублирование)
Субтитры: Английские
Режиссер: Стивен Содерберг
В ролях: Джуд Лоу, Руни Мара, Кэтрин Зета-Джонс, Ченнинг Татум, Кармен Пелаес, Марин Айрлэнд, Полли Дрэйпер, Аральдо Альварес, Джеймс Мартинез, Владимир Версейл
Описание: Жизнь главной героини Эмили Хоукинс пошла под откос, когда её мужа посадили в тюрьму. Вначале она пыталась спастись от депрессии своими силами, горстями глотая успокоительное. После того, как стало понятно, что это не поможет, Эмили не оставалось другого выхода кроме отправления в психиатрическую лечебницу к добрым и заботливым людям в белых халатах. Теперь главная героиня борется со своими внутренними демонами уже не одна — справиться с угнетённым состоянием ей помогают два лучших доктора клиники, а также экспериментальные препараты, обладающие довольно странными побочными эффектами. Не получится ли так, что все внутренние страхи Эмили вместо того, чтобы исчезнуть, вырвутся наружу?
Изображение
Дополнительно: Сохранены оригинальные чаптеры как на Blu-Ray.
Sample:
http://multi-up.com/863780
Качество: BDRip 720p
Формат: MKV
Видео кодек: H264
Аудио кодек: AC3, DTS
Видео: 1280x694 23.98fps 6466Kbps
Аудио:
Аудио Rus: AC3 48kHz 6ch 448kbps
Аудио Eng: DTS 48kHz 6ch 1510kbps
"MediaInfo"
Format : Matroska
Format version : Version 2
File size : 6.26 GiB
Duration : 1h 46mn
Overall bit rate : 8 426 Kbps
Movie name : IRONCLUB
Encoded date : UTC 2013-05-09 13:49:14
Writing application : mkvmerge v5.2.0 ('I can't explain') built on Dec 18 2011 18:12:03
Writing library : libebml v1.2.3 + libmatroska v1.3.0

Video
ID : 1
Format : AVC
Format/Info : Advanced Video Codec
Format profile : High@L4.1
Format settings, CABAC : Yes
Format settings, ReFrames : 9 frames
Codec ID : V_MPEG4/ISO/AVC
Duration : 1h 46mn
Bit rate : 6 301 Kbps
Width : 1 280 pixels
Height : 694 pixels
Display aspect ratio : 1.85:1
Frame rate : 23.976 fps
Color space : YUV
Chroma subsampling : 4:2:0
Bit depth : 8 bits
Scan type : Progressive
Bits/(Pixel*Frame) : 0.296
Stream size : 4.68 GiB (75%)
Title : Side.Effects.2013.720p.BluRay.DTS.x264-HDWinG
Writing library : x264 core 130 r2274+704+40 24c804d tMod+MixAQ [8-bit@4:2:0 X86_64]
Encoding settings : cabac=1 / ref=9 / deblock=1:-3:-3 / analyse=0x3:0x113 / me=umh / subme=11 / psy=1 / fade_compensate=0.00 / psy_rd=1.05:0.00 / mixed_ref=1 / me_range=48 / chroma_me=1 / trellis=2 / 8x8dct=1 / cqm=0 / deadzone=21,11 / fast_pskip=0 / chroma_qp_offset=-2 / threads=36 / lookahead_threads=5 / sliced_threads=0 / nr=0 / decimate=0 / interlaced=0 / bluray_compat=0 / constrained_intra=0 / fgo=0 / bframes=8 / b_pyramid=2 / b_adapt=2 / b_bias=0 / direct=3 / weightb=1 / open_gop=0 / weightp=2 / keyint=240 / keyint_min=24 / scenecut=40 / intra_refresh=0 / rc=crf / mbtree=0 / crf=16.5000 / qcomp=0.72 / qpmin=0 / qpmax=69 / qpstep=4 / ip_ratio=1.25 / pb_ratio=1.20 / aq=4:0.80 / aq-sensitivity=10.00 / aq-ifactor=1.00 / aq-pfactor=1.00 / aq-bfactor=1.00 / aq2=0
Language : English
Default : Yes
Forced : Yes

Audio #1
ID : 2
Format : AC-3
Format/Info : Audio Coding 3
Mode extension : CM (complete main)
Format settings, Endianness : Big
Codec ID : A_AC3
Duration : 1h 46mn
Bit rate mode : Constant
Bit rate : 448 Kbps
Channel(s) : 6 channels
Channel positions : Front: L C R, Side: L R, LFE
Sampling rate : 48.0 KHz
Bit depth : 16 bits
Compression mode : Lossy
Stream size : 341 MiB (5%)
Title : DD 5.1 @ 448 kbps - Dub, R5
Language : Russian
Default : Yes
Forced : Yes

Audio #2
ID : 3
Format : DTS
Format/Info : Digital Theater Systems
Codec ID : A_DTS
Duration : 1h 46mn
Bit rate mode : Constant
Bit rate : 1 510 Kbps
Channel(s) : 6 channels
Channel positions : Front: L C R, Side: L R, LFE
Sampling rate : 48.0 KHz
Bit depth : 24 bits
Compression mode : Lossy
Stream size : 1.12 GiB (18%)
Title : DTS 5.1 @ 1536 kbps
Language : English
Default : No
Forced : No

Text
ID : 4
Format : UTF-8
Codec ID : S_TEXT/UTF8
Codec ID/Info : UTF-8 Plain Text
Language : English
Default : No
Forced : No

Menu
00:00:00.000 : en:00:00:00.000
00:05:24.324 : en:00:05:24.324
00:07:59.437 : en:00:07:59.437
00:13:06.452 : en:00:13:06.452
00:18:22.935 : en:00:18:22.935
00:23:39.335 : en:00:23:39.335
00:30:36.960 : en:00:30:36.960
00:34:43.540 : en:00:34:43.540
00:37:39.632 : en:00:37:39.632
00:44:33.921 : en:00:44:33.921
00:51:34.717 : en:00:51:34.717
00:58:22.999 : en:00:58:22.999
01:03:43.153 : en:01:03:43.153
01:09:26.996 : en:01:09:26.996
01:15:53.424 : en:01:15:53.424
01:21:20.292 : en:01:21:20.292
01:26:27.766 : en:01:26:27.766
01:34:25.159 : en:01:34:25.159
01:38:37.745 : en:01:38:37.745
01:43:27.618 : en:01:43:27.618
Свернуть

"Скриншоты"
Изображение
Изображение
Изображение
Изображение
Свернуть

Раздача группы:
Изображение


Последний раз редактировалось rastor 2013-05-10 06:44, всего редактировалось 1 раз.
В сети
Профиль  
 Добавлено: 2013-05-09 14:37 (спустя 1 день 8 часов)
Стаж: 8 лет 9 месяцев
Сообщений: 164
Спасибок: 56
нормальный HD когда будет?
Не в сети
Профиль  
 Добавлено: 2013-05-10 06:45 (спустя 16 часов)
DVD Release Group
Аватара пользователя
Стаж: 7 лет 1 месяц
Сообщений: 3542
Спасибок: 246639
Лайков: 1016
el topo
Рип обновлен на более лучшее качество.
В сети
Профиль  
 Добавлено: 2013-05-10 08:52 (спустя 2 часа 6 минут)
Стаж: 8 лет 9 месяцев
Сообщений: 164
Спасибок: 56
rastor
поздно, я уже посмотрел)))
Не в сети
Профиль  
Начать новую темуОтветить на тему  [ Сообщений: 4 ] 
Вы не можете начинать темы
Вы не можете отвечать на сообщения
Вы не можете редактировать свои сообщения
Вы не можете удалять свои сообщения