Правила форума

  • В этом разделе создание новых тем Запрещено.
  • Для создания новых тем пользуйтесь Корневым разделом DVD и HD фильмы.
Начать новую темуОтветить на тему  [ 1 сообщение ] 
Торрент файл
Размер: 2.77 GB • Зарегистрирован: 3 года • Статус: T Временный релиз
Скачан: 21 раз • Желающих скачать: 0 • Поблагодарили: 14 раз
 Раздают: 0  |  0 KB/s  ]   Качают: 0  |  0 KB/s  ] 
 Полного источника не было 5 часов 
Сообщения
 Добавлено: 2013-11-29 03:16
Аватара пользователя
Стаж: 7 лет 2 месяца
Сообщений: 7167
Спасибок: 81972
Лайков: 2438
Поцелуй мамочку на ночь / Dark Touch

Изображение


Год выпуска: 2013
Страна: Франция, Ирландия, Швеция
Слоган: «Её месть будет безжалостна»
Жанр: ужасы
Продолжительность: 01:31:27
Перевод: Любительский (двухголосый закадровый) + Оригинальная звуковая дорожка
Субтитры: Английские

Режиссёр: Марина де Ван
В ролях: Мари Мисси Китинг, Марселла Планкетт, Падрейк Делани, Клер Баррет, Роберт Доннелли,
Ричард Дормер, Шарлотта Фливхолм, Элла Хэйес, Марк Хубермэн, Кэти Кирби
Описание: Однажды вечером в доме на окраине начинают происходить невероятно ужасные и таинственные вещи, в ходе чего погибают его обитатели, родители и младший брат 11-летней девочки Ниам. Полиция считает, что это дело рук убийц-вандалов, и не придаёт значения словам Ниам, когда та рассказывает о беспощадной ярости дома.

Девочку забирают к себе друзья её родителей, которые, окружив Ниам любовью и вниманием, стараются облегчить её боль. Но Ниам не оставляют в покое. Она постоянно замечает признаки подкрадывающейся опасности, окружающие её предметы пропитаны жестокой яростью, которая вскоре вновь прорывается и начинает жестокую расправу, в поисках всё новых жертв…
Изображение

Качество: WEB-DL 720p
Формат: MKV
Видео кодек: H264 (AVC)
Аудио кодек: AC3 (Dolby Digital)
Видео: 1 280x536, 24.000 fps, 3 489 Kbps
Аудио #1: 48.0 KHz, 2 ch, 192 Kbps [Любительский (двухголосый закадровый)] DeadSno & den904
Аудио #2: 48.0 KHz, 6 ch, 384 Kbps [Оригинальная звуковая дорожка]
Субтитры: Английские
Изображение
Скриншоты
Изображение

Изображение

Изображение

Изображение

Изображение
Свернуть
MI
General
Поцелуй мамочку на ночь.2013.mkv
Format : Matroska
Format version : Version 4 / Version 2
File size : 2.77 GiB
Duration : 1h 31mn
Overall bit rate : 4 343 Kbps
Encoded date : UTC 2013-11-28 17:44:24
Writing application : mkvmerge v6.5.0 ('Isn't she lovely') built on Oct 20 2013 12:50:05
Writing library : libebml v1.3.0 + libmatroska v1.4.1

Video
ID : 1
Format : AVC
Format/Info : Advanced Video Codec
Format profile : Main@L3.1
Format settings, CABAC : No
Format settings, ReFrames : 2 frames
Codec ID : V_MPEG4/ISO/AVC
Duration : 1h 31mn
Bit rate : 3 489 Kbps
Width : 1 280 pixels
Height : 536 pixels
Display aspect ratio : 2.40:1
Frame rate mode : Constant
Frame rate : 24.000 fps
Color space : YUV
Chroma subsampling : 4:2:0
Bit depth : 8 bits
Scan type : Progressive
Bits/(Pixel*Frame) : 0.212
Stream size : 2.23 GiB (80%)
Language : English
Default : Yes
Forced : No
Color primaries : BT.709
Transfer characteristics : BT.709
Matrix coefficients : BT.709

Audio #1
ID : 2
Format : AC-3
Format/Info : Audio Coding 3
Mode extension : CM (complete main)
Format settings, Endianness : Big
Codec ID : A_AC3
Duration : 1h 31mn
Bit rate mode : Constant
Bit rate : 192 Kbps
Channel(s) : 2 channels
Channel positions : Front: L R
Sampling rate : 48.0 KHz
Bit depth : 16 bits
Compression mode : Lossy
Stream size : 126 MiB (4%)
Title : online movies
Language : Russian
Default : Yes
Forced : Yes

Audio #2
ID : 3
Format : AC-3
Format/Info : Audio Coding 3
Mode extension : CM (complete main)
Format settings, Endianness : Big
Codec ID : A_AC3
Duration : 1h 31mn
Bit rate mode : Constant
Bit rate : 192 Kbps
Channel(s) : 2 channels
Channel positions : Front: L R
Sampling rate : 48.0 KHz
Bit depth : 16 bits
Compression mode : Lossy
Stream size : 126 MiB (4%)
Title : DeadSno & den904
Language : Russian
Default : No
Forced : No

Audio #3
ID : 4
Format : AC-3
Format/Info : Audio Coding 3
Mode extension : CM (complete main)
Format settings, Endianness : Big
Codec ID : A_AC3
Duration : 1h 31mn
Bit rate mode : Constant
Bit rate : 384 Kbps
Channel(s) : 6 channels
Channel positions : Front: L C R, Side: L R, LFE
Sampling rate : 48.0 KHz
Bit depth : 16 bits
Compression mode : Lossy
Stream size : 251 MiB (9%)
Language : English
Default : No
Forced : No

Text
ID : 5
Format : UTF-8
Codec ID : S_TEXT/UTF8
Codec ID/Info : UTF-8 Plain Text
Language : English
Default : No
Forced : No

Menu
00:00:00.000 : en:Chapter 1
00:10:53.000 : en:Chapter 2
00:19:41.000 : en:Chapter 3
00:30:47.000 : en:Chapter 4
00:39:35.000 : en:Chapter 5
00:50:33.000 : en:Chapter 6
01:00:52.000 : en:Chapter 7
01:09:14.000 : en:Chapter 8
01:21:12.000 : en:Chapter 9
01:27:40.000 : en:Chapter 10
Свернуть
 zima-letoru и rotametr нравится это.
Не в сети
Профиль  
Начать новую темуОтветить на тему  [ 1 сообщение ] 
Вы не можете начинать темы
Вы не можете отвечать на сообщения
Вы не можете редактировать свои сообщения
Вы не можете удалять свои сообщения