Правила форума

  • В этом разделе создание новых тем Запрещено.
  • Для создания новых тем пользуйтесь Корневым разделом DVD и HD фильмы.
Начать новую темуОтветить на тему  [ 1 сообщение ] 
Торрент файл
Размер: 3.7 GB • Зарегистрирован: 4 года 9 месяцев • Статус: Проверено
Скачан: 13 раз • Желающих скачать: 0 • Поблагодарили: 6 раз
 Раздают: 0  |  0 KB/s  ]   Качают: 0  |  0 KB/s  ] 
 Полного источника не было 3 года 2 месяца 
Сообщения
 Добавлено: 2012-12-16 16:56
Модератор
Аватара пользователя
Стаж: 5 лет 8 месяцев
Сообщений: 6281
Спасибок: 17338
Лайков: 1633
Поцелуй на удачу / Just My Luck

Изображение

«Их судьбу предсказали звёзды»

Год выпуска: 2006
Страна: Изображение США
Жанр: фэнтези, мелодрама, комедия
Продолжительность: 103 мин. / 01:43
Перевод: Профессиональный (дубляж)

Режиссёр: Дональд Питри
Сценарист: Эми Харрис, А. Марлин Кинг, Джонатан Бернштейн
Продюсер: Джозеф М. Карачиоло мл., Арнон Милчэн, Дональд Питри
Оператор: Дин Семлер
Композитор: Тедди Кастелуччи
В ролях: Линдси Лохан, Крис Пайн, Сэмэр Армстронг, Бри Тернер, Фэйзон Лав, Мисси Пайл, Макензи Вега, Карлос Понсе, Том Флетчер, Гарри Джадд, Дуги Пойнтер, Това Фелдшух, Жаклин Флеминг, Дэйн Родс, Микки Вэл, Маркус Хестер, Тоби Гэдисон, Марк Камерон, Строун Бови, Джерри Вичи, Кенни Альфонсо, Рэй Гарви, Роум Канда, Дианна Миллер, Эрик Либерман, Дин Кохрэн, Мэри Файастоун, Мэттью Морган, Лоринг Мерта, Фрэнк Феррара, Джон Бернард Мартин
Описание: Сексуальная жительница Манхеттена Эшли слывет самой удачливой девчонкой в округе. Однако после случайного поцелуя с одним неудачником, Эшли понимает, что ее удача «повернулась к ней спиной и уплыла к тому парню». И как теперь «отъявленной неудачнице» вернуть свой «счастливый поцелуй»?
Рейтинг MPAA: Рейтинг PG-13 (Дети до 13 лет допускаются на фильм только с родителями)
Мировая премьера: 9 мая 2006
Премьера в России: 29 июня 2006
Бюджет: $28 000 000

Качество: BDRip 720p
Формат: MKV
Видео кодек: MPEG-4 AVC
Аудио кодек: DTS
Видео: MPEG-4 AVC, 4444 Кбит/с, 1280x688, 23.976 кадр/с
Аудио: DTS, 6 ch, 768 Кбит/с
Скриншоты
Изображение
Изображение
Изображение
Свернуть

MediaInfo
Общее
Уникальный идентификатор: 237687934420984969232735629218097263191 (0xB2D107F1B81E37DCA5B57B42AD55F257)
Полное имя: F:\Films\Comedy\Pocelyi.na.ydachy.2006.x264.BDRip.(720p).ExKioRay.mkv
Формат: Matroska
Версия формата: Version 2
Размер файла: 3,70 Гбайт
Продолжительность: 1 ч. 41 м.
Общий поток: 5211 Кбит/сек
Дата кодирования: UTC 2011-10-27 23:28:27
Программа кодирования: mkvmerge v4.9.1 ('Ich will') gebaut am Jul 11 2011 23:53:15
Библиотека кодирования: libebml v1.2.1 + libmatroska v1.1.1

Видео
Идентификатор: 1
Формат: AVC
Формат/Информация: Advanced Video Codec
Профиль формата: High@L4.1
Параметр CABAC формата: Да
Параметр ReFrames формата: 5 кадров
Идентификатор кодека: V_MPEG4/ISO/AVC
Продолжительность: 1 ч. 41 м.
Битрейт: 4444 Кбит/сек
Ширина: 1280 пикселей
Высота: 688 пикселей
Соотношение сторон: 1,860
Частота кадров: 23,976 кадра/сек
Цветовое пространство: YUV
Субдискретизация насыщенности: 4:2:0
Битовая глубина: 8 бит
Тип развёртки: Прогрессивная
Бит/(Пиксели*Кадры): 0.210
Размер потока: 3,09 Гбайт (84%)
Библиотека кодирования: x264 core 116 r2044 392e762
Настройки программы: cabac=1 / ref=5 / deblock=1:1:-1 / analyse=0x3:0x113 / me=hex / subme=6 / psy=1 / psy_rd=1.00:0.00 / mixed_ref=1 / me_range=16 / chroma_me=1 / trellis=2 / 8x8dct=1 / cqm=0 / deadzone=21,11 / fast_pskip=1 / chroma_qp_offset=-2 / threads=6 / sliced_threads=0 / nr=0 / decimate=1 / interlaced=0 / bluray_compat=0 / constrained_intra=0 / bframes=5 / b_pyramid=2 / b_adapt=2 / b_bias=0 / direct=3 / weightb=1 / open_gop=1 / weightp=2 / keyint=250 / keyint_min=23 / scenecut=40 / intra_refresh=0 / rc_lookahead=60 / rc=2pass / mbtree=1 / bitrate=4444 / ratetol=1.0 / qcomp=0.60 / qpmin=0 / qpmax=60 / qpstep=4 / cplxblur=20.0 / qblur=0.5 / ip_ratio=1.40 / aq=1:1.10
Default: Да
Forced: Нет

Аудио
Идентификатор: 2
Формат: DTS
Формат/Информация: Digital Theater Systems
Идентификатор кодека: A_DTS
Продолжительность: 1 ч. 41 м.
Вид битрейта: Постоянный
Битрейт: 755 Кбит/сек
Каналы: 6 каналов
Расположение каналов: Front: L C R, Side: L R, LFE
Частота: 48,0 КГц
Битовая глубина: 24 бит
Метод сжатия: С потерями
Размер потока: 549 Мбайт (14%)
Default: Да
Forced: Нет
Свернуть


Тема поднималась пользователем bazanoff 2012-12-16 16:56.
 eminrap нравится это.
Не в сети
Профиль  
Начать новую темуОтветить на тему  [ 1 сообщение ] 
Вы не можете начинать темы
Вы не можете отвечать на сообщения
Вы не можете редактировать свои сообщения
Вы не можете удалять свои сообщения