Правила форума

  • В этом разделе создание новых тем Запрещено.
  • Для создания новых тем пользуйтесь Корневым разделом DVD и HD фильмы.
Начать новую темуОтветить на тему  [ Сообщений: 4 ] 
Торрент файл
Размер: 7.76 GB • Зарегистрирован: 3 года 8 месяцев • Статус: Проверено
Скачан: 24 раза • Желающих скачать: 0 • Поблагодарили: 9 раз
 Раздают: 0  |  0 KB/s  ]   Качают: 0  |  0 KB/s  ] 
 Полного источника не было 14 дней 
Сообщения
 Добавлено: 2013-03-15 09:21
Модератор релиз-группы
Аватара пользователя
Стаж: 9 лет 1 месяц
Возраст: 97
Сообщений: 11660
Спасибок: 6532
Лайков: 269
Почтальон / The Postman


Изображение


Год выпуска: 1997
Страна: США
Жанр: фантастика, боевик, приключения
Продолжительность: 2:50:11
Перевод: Профессиональный (полное дублирование)

Режиссер: Кевин Костнер / Kevin Kostner

В ролях: Кевин Костнер, Уилл Пэттон, Лоренц Тейт, Оливия Уильямс, Джеймс Руссо, Дэниэл фон Барген, Том Петти, Скотт Бэйрстоу, Джованни Рибизи, Роберта Максвелл
Описание: Фильм снят по книге Дэвида Брина. Действие происходит в будущем. После глобальной войны и эпидемии выжившие остатки людей селятся разрозненными группами на территории бывших Соединенных Штатов Америки.
Герой Кевина Костнера предпочитает жить одиночкой. Он скитается вместе со своим дрессированным мулом из селения в селение, давая представления из Шекспира. Правит всем тиран - генерал Бетлехем. Его армия собирает дань и рекрутов со всех, кто пытается жить мирно.
Героя фильма насильно взяли в армию генерала, но он бежал и нашел в джипе скелет почтальона, надел его форму и взял сумку с письмами. Придя в один из лагерей, он представился почтальоном новых возрожденных Соединенных Штатов Америки.
Люди поверили ему, также в городке он нашел свою любовь... Десятки последователей почтальона стали доставлять письма, что привело к вооруженному столкновению сил генерала с новой армией Свободы.
Изображение
Качество: BDrip 1080p
Формат: MKV
Видео: 1920x800, 4968 Kbps, 23.976 fps
Аудио: AC-3, 6 ch, 640 kbps (Rus)
Аудио 2: AC-3, 6 ch, 640 kbps (Eng)
"Скриншоты"

Изображение

Изображение

Изображение

Изображение
Свернуть
Mi
General
Unique ID : 187829856799523730947296318138928765973 (0x8D4EB6EDCC698292B0138B8011869C15)
Complete name : D:\Почтальон.1997.BDRip.1080p.Rus.Eng.mkv
Format : Matroska
Format version : Version 4 / Version 2
File size : 7.76 GiB
Duration : 2h 57mn
Overall bit rate : 6 246 Kbps
Movie name : Почтальон.1997
Encoded date : UTC 2013-03-14 14:52:52
Writing application : mkvmerge v6.1.0 ('Old Devil') built on Mar 2 2013 14:32:37
Writing library : libebml v1.3.0 + libmatroska v1.4.0

Video
ID : 1
Format : AVC
Format/Info : Advanced Video Codec
Format profile : High@L4.1
Format settings, CABAC : Yes
Format settings, ReFrames : 4 frames
Codec ID : V_MPEG4/ISO/AVC
Duration : 2h 57mn
Bit rate : 4 968 Kbps
Width : 1 920 pixels
Height : 800 pixels
Display aspect ratio : 2.40:1
Frame rate mode : Constant
Frame rate : 23.976 fps
Color space : YUV
Chroma subsampling : 4:2:0
Bit depth : 8 bits
Scan type : Progressive
Bits/(Pixel*Frame) : 0.135
Stream size : 6.02 GiB (78%)
Title : Rip by Boriy
Writing library : x264 core 130 r2273 b3065e6
Encoding settings : cabac=1 / ref=4 / deblock=1:0:0 / analyse=0x3:0x113 / me=umh / subme=10 / psy=1 / psy_rd=1.00:0.10 / mixed_ref=1 / me_range=32 / chroma_me=1 / trellis=2 / 8x8dct=1 / cqm=0 / deadzone=21,11 / fast_pskip=0 / chroma_qp_offset=-2 / threads=12 / lookahead_threads=1 / sliced_threads=0 / nr=0 / decimate=0 / interlaced=0 / bluray_compat=0 / constrained_intra=0 / bframes=5 / b_pyramid=2 / b_adapt=2 / b_bias=0 / direct=3 / weightb=1 / open_gop=0 / weightp=2 / keyint=240 / keyint_min=23 / scenecut=40 / intra_refresh=0 / rc=2pass / mbtree=0 / bitrate=4968 / ratetol=1.0 / qcomp=0.60 / qpmin=0 / qpmax=69 / qpstep=4 / cplxblur=20.0 / qblur=0.5 / ip_ratio=1.40 / pb_ratio=1.30 / aq=1:0.80
Language : English
Default : Yes
Forced : No

Audio #1
ID : 2
Format : AC-3
Format/Info : Audio Coding 3
Mode extension : CM (complete main)
Format settings, Endianness : Big
Codec ID : A_AC3
Duration : 2h 57mn
Bit rate mode : Constant
Bit rate : 640 Kbps
Channel(s) : 6 channels
Channel positions : Front: L C R, Side: L R, LFE
Sampling rate : 48.0 KHz
Bit depth : 16 bits
Compression mode : Lossy
Stream size : 814 MiB (10%)
Title : Дубляж
Language : Russian
Default : Yes
Forced : No

Audio #2
ID : 3
Format : AC-3
Format/Info : Audio Coding 3
Mode extension : CM (complete main)
Format settings, Endianness : Big
Codec ID : A_AC3
Duration : 2h 57mn
Bit rate mode : Constant
Bit rate : 640 Kbps
Channel(s) : 6 channels
Channel positions : Front: L C R, Side: L R, LFE
Sampling rate : 48.0 KHz
Bit depth : 16 bits
Compression mode : Lossy
Stream size : 814 MiB (10%)
Title : Оригинал
Language : English
Default : No
Forced : No

Text #1
ID : 4
Format : UTF-8
Codec ID : S_TEXT/UTF8
Codec ID/Info : UTF-8 Plain Text
Language : Russian
Default : No
Forced : No

Text #2
ID : 5
Format : UTF-8
Codec ID : S_TEXT/UTF8
Codec ID/Info : UTF-8 Plain Text
Language : English
Default : No
Forced : No

Menu
00:00:00.000 : :Chapter 1
00:03:48.977 : :Chapter 2
00:06:53.203 : :Chapter 3
00:11:18.426 : :Chapter 4
00:15:33.932 : :Chapter 5
00:21:55.314 : :Chapter 6
00:27:15.050 : :Chapter 7
00:30:55.228 : :Chapter 8
00:34:45.541 : :Chapter 9
00:38:04.907 : :Chapter 10
00:41:08.299 : :Chapter 11
00:44:11.857 : :Chapter 12
00:50:03.333 : :Chapter 13
00:55:13.643 : :Chapter 14
00:58:39.807 : :Chapter 15
01:02:12.645 : :Chapter 16
01:04:50.636 : :Chapter 17
01:08:37.404 : :Chapter 18
01:14:04.148 : :Chapter 19
01:17:34.232 : :Chapter 20
01:20:45.799 : :Chapter 21
01:26:43.406 : :Chapter 22
01:30:11.197 : :Chapter 23
01:32:59.365 : :Chapter 24
01:34:40.925 : :Chapter 25
01:37:09.156 : :Chapter 26
01:41:00.888 : :Chapter 27
01:43:07.097 : :Chapter 28
01:47:08.839 : :Chapter 29
01:52:51.264 : :Chapter 30
02:00:31.265 : :Chapter 31
02:07:00.070 : :Chapter 32
02:11:41.602 : :Chapter 33
02:17:03.089 : :Chapter 34
02:20:05.688 : :Chapter 35
02:22:09.270 : :Chapter 36
02:26:00.752 : :Chapter 37
02:30:58.966 : :Chapter 38
02:33:39.418 : :Chapter 39
02:36:10.069 : :Chapter 40
02:39:22.843 : :Chapter 41
02:42:21.857 : :Chapter 42
02:47:36.879 : :Chapter 43
02:51:35.284 : :Chapter 44
02:57:49.450 : :Chapter 45

Свернуть
_________________
Изображение
Не в сети
Профиль  
 Добавлено: 2013-03-15 12:01 (спустя 2 часа 39 минут)
Аватара пользователя
Стаж: 5 лет 2 месяца
Сообщений: 111
Спасибок: 71
Лайков: 2
:co_ol: Фильм хороший, советую.
_________________
Изображение
Изображение Avp1991
Не в сети
Профиль  
 Добавлено: 2013-03-15 20:14 (спустя 8 часов)
Модератор релиз-группы
Аватара пользователя
Стаж: 9 лет 1 месяц
Возраст: 97
Сообщений: 11660
Спасибок: 6532
Лайков: 269
умерла материнка, не прошло и пяти лет, сколько то дней будет(до покупки новых железяк):
Полного источника не было...
_________________
Изображение
Не в сети
Профиль  
 Добавлено: 2013-04-01 16:56 (спустя 16 дней)
Модератор релиз-группы
Аватара пользователя
Стаж: 9 лет 1 месяц
Возраст: 97
Сообщений: 11660
Спасибок: 6532
Лайков: 269
я на раздаче, с новыми потрохами в компе :ps_ih:
_________________
Изображение
Не в сети
Профиль  
Начать новую темуОтветить на тему  [ Сообщений: 4 ] 
Вы не можете начинать темы
Вы не можете отвечать на сообщения
Вы не можете редактировать свои сообщения
Вы не можете удалять свои сообщения