Правила форума

  • В этом разделе создание новых тем Запрещено.
  • Для создания новых тем пользуйтесь Корневым разделом DVD и HD фильмы.
Начать новую темуОтветить на тему  [ Сообщений: 3 ] 
Торрент файл
Размер: 7.25 GB • Зарегистрирован: 2 года 4 месяца • Статус: Проверено
Скачан: 125 раз • Желающих скачать: 0 • Поблагодарили: 28 раз
 Раздают: 0  |  0 KB/s  ]   Качают: 0  |  0 KB/s  ] 
 Полного источника не было 11 часов 
Сообщения
 Добавлено: 2014-07-31 18:59
Руководитель релиз-группы
Аватара пользователя
Стаж: 7 лет 2 месяца
Возраст: 4
Сообщений: 5213
Спасибок: 19350
Лайков: 2312
Под маской жиголо / Fading Gigolo

Изображение


Год выпуска: 2013
Страна: США, Antidote Films (I)
Жанр: Комедия
Продолжительность: 01:29:59
Перевод: Профессиональный (дубляж)
Дополнительно: Сохранены оригинальные чаптеры как на Blu-Ray

Режиссёр: Джон Туртурро
В ролях: Джон Туртурро, Вуди Аллен, Шэрон Стоун, София Вергара, Ванесса Паради, Лив Шрайбер, Тоня Пинкинс, Джейд Диксон, Обри Джозеф, Данте Хоагленд
Описание: Герой Вуди предлагает своему небогатому другу услуги сутенера в оригинальном бизнесе - любовных играх с состоятельными женщинами. И, казалось бы, все пошло как по маслу, но после череды комичных ляпов и позорных провалов, становится очевидно, что парни плывут против течения денег и любви...


Качество: BDRip (1080p)
Формат: MKV
Видео: MPEG-4 AVC, 10511 Кбит/с, 1920х1038
Аудио #1: Русский (AC3, 6 ch, 384 Кбит/с), английский (AC3, 6 ch, 640 Кбит/с) [Профессиональный (дубляж)]
Скриншоты
Изображение
Изображение
Изображение
Свернуть


MI
Общее
Уникальный идентификатор : 205701918004596588021783915499745670570 (0x9AC0BF93E286E0BF9A94109866F775AA)
Полное имя : D:\Films\Fading.Gigolo.2013.BDRip.1080p.mkv
Формат : Matroska
Версия формата : Version 2
Размер файла : 7,25 Гбайт
Продолжительность : 1 ч. 29 м.
Общий поток : 11,5 Мбит/сек
Дата кодирования : UTC 2014-07-31 13:54:00
Программа кодирования : mkvmerge v5.2.0 ('I can't explain') built on Dec 18 2011 18:12:03
Библиотека кодирования : libebml v1.2.3 + libmatroska v1.3.0

Видео
Идентификатор : 1
Формат : AVC
Формат/Информация : Advanced Video Codec
Профиль формата : High@L4.1
Параметр CABAC формата : Да
Параметр ReFrames формата : 4 кадра
Идентификатор кодека : V_MPEG4/ISO/AVC
Продолжительность : 1 ч. 29 м.
Битрейт : 10,5 Мбит/сек
Ширина : 1920 пикселей
Высота : 1038 пикселей
Соотношение сторон : 1,85:1
Режим частоты кадров : Постоянный
Частота кадров : 23,976 кадра/сек
Цветовое пространство : YUV
Субдискретизация насыщенности : 4:2:0
Битовая глубина : 8 бит
Тип развёртки : Прогрессивная
Бит/(Пиксели*Кадры) : 0.220
Размер потока : 6,46 Гбайт (89%)
Библиотека кодирования : x264 core 142 r2431 ac76440
Настройки программы : cabac=1 / ref=4 / deblock=1:-3:-3 / analyse=0x3:0x113 / me=umh / subme=10 / psy=1 / psy_rd=1.00:0.05 / mixed_ref=1 / me_range=32 / chroma_me=1 / trellis=2 / 8x8dct=1 / cqm=0 / deadzone=21,11 / fast_pskip=0 / chroma_qp_offset=-2 / threads=18 / lookahead_threads=1 / sliced_threads=0 / nr=0 / decimate=1 / interlaced=0 / bluray_compat=0 / constrained_intra=0 / bframes=5 / b_pyramid=2 / b_adapt=2 / b_bias=0 / direct=3 / weightb=1 / open_gop=0 / weightp=2 / keyint=250 / keyint_min=23 / scenecut=40 / intra_refresh=0 / rc=2pass / mbtree=0 / bitrate=10511 / ratetol=1.0 / qcomp=0.70 / qpmin=0 / qpmax=69 / qpstep=4 / cplxblur=20.0 / qblur=0.5 / ip_ratio=1.40 / pb_ratio=1.30 / aq=2:0.90
Язык : English
Default : Да
Forced : Нет

Аудио #1
Идентификатор : 2
Формат : AC-3
Формат/Информация : Audio Coding 3
Расширение режима : CM (complete main)
Параметр Endianness формата : Big
Идентификатор кодека : A_AC3
Продолжительность : 1 ч. 29 м.
Вид битрейта : Постоянный
Битрейт : 384 Кбит/сек
Каналы : 6 каналов
Расположение каналов : Front: L C R, Side: L R, LFE
Частота : 48,0 КГц
Битовая глубина : 16 бит
Метод сжатия : С потерями
Размер потока : 247 Мбайт (3%)
Заголовок : DUB (iTunes)
Язык : Russian
Default : Да
Forced : Нет

Аудио #2
Идентификатор : 3
Формат : AC-3
Формат/Информация : Audio Coding 3
Расширение режима : CM (complete main)
Параметр Endianness формата : Big
Идентификатор кодека : A_AC3
Продолжительность : 1 ч. 29 м.
Вид битрейта : Постоянный
Битрейт : 640 Кбит/сек
Каналы : 6 каналов
Расположение каналов : Front: L C R, Side: L R, LFE
Частота : 48,0 КГц
Битовая глубина : 16 бит
Метод сжатия : С потерями
Размер потока : 412 Мбайт (6%)
Язык : English
Default : Нет
Forced : Нет

Текст
Идентификатор : 4
Формат : UTF-8
Идентификатор кодека : S_TEXT/UTF8
Идентификатор кодека/Информация : UTF-8 Plain Text
Язык : English
Default : Нет
Forced : Нет

---------------x264 INFO---------------
x264 [info]: frame I:950 Avg QP:15.61 size:274735
x264 [info]: frame P:29067 Avg QP:18.17 size: 91547
x264 [info]: frame B:99450 Avg QP:20.51 size: 41896
Свернуть
Не в сети
Профиль  
 Добавлено: 2014-08-05 14:56 (спустя 4 дня)
Кинокомментатор
Аватара пользователя
Стаж: 9 лет
Сообщений: 1331
Лайков: 52
забавное кино) милое и романтичное) порнухи минимум) шутки про евреев негров и всё такое) в общем стандартное среднестатистическое кино)))
Не в сети
Профиль  
 Добавлено: 2014-08-05 19:53 (спустя 4 часа)
Top-seeder
Аватара пользователя
Стаж: 8 лет 3 месяца
Сообщений: 713
Спасибок: 103
Лайков: 13
как такое кино можно назвать комедией?
фильм конечно прикольный, но это не комедия. даже элементов комедии нет
Не в сети
Профиль  
Начать новую темуОтветить на тему  [ Сообщений: 3 ] 
Вы не можете начинать темы
Вы не можете отвечать на сообщения
Вы не можете редактировать свои сообщения
Вы не можете удалять свои сообщения