Правила форума

  • В этом разделе создание новых тем Запрещено.
  • Для создания новых тем пользуйтесь Корневым разделом DVD и HD фильмы.
Начать новую темуОтветить на тему  [ Сообщений: 4 ] 
Торрент файл
Размер: 7.3 GB • Зарегистрирован: 5 лет 4 месяца • Статус: Проверено
Скачан: 96 раз • Желающих скачать: 0 • Поблагодарили: 23 раза
 Раздают: 0  |  0 KB/s  ]   Качают: 0  |  0 KB/s  ] 
 Полного источника не было 1 год 8 месяцев 
Сообщения
 Добавлено: 2011-08-02 19:11
Руководитель релиз-группы
Аватара пользователя
Стаж: 9 лет 1 месяц
Возраст: 28
Сообщений: 4244
Спасибок: 31992
Лайков: 32
Изображение

Подмена
Changeling


«To find her son, she did what no one else dared.»

Год выпуска: 2008
Страна: Изображение США
Жанр: триллер, драма, детектив
Продолжительность: 02:21:54
Перевод: Профессиональный (полное дублирование) + Оригинал + Комментарии (английские) + Субтитры (English, Slovenian)

Режиссер: Клинт Иствуд
Сценарий: Дж. Майкл Стражински
Продюсер: Клинт Иствуд, Брайан Грейзер, Рон Ховард
Оператор: Том Стерн
Композитор: Клинт Иствуд

В ролях: Анджелина Джоли, Гэтлин Гриффит, Мишель Мартин, Жан Деверо, Эрика Грант, Майкл Келли, Антония Беннетт, Керри Рэндлс, Фрэнк Вуд, Морган Иствуд

Описание: Действие картины развивается в Лос-Анджелесе 20-х годов прошлого столетия. Обратившись в полицию с заявлением об исчезновении ребенка, главная героиня вскоре получает своего сына, но сообщает полицейским, что, несмотря на внешнее сходство, это не ее сын. Вместо помощи несчастная мать получает прописку в палате клиники для сумасшедших...

Раздача: Изображение

kinopoisk.ru: 8.110 (32 591) Топ250: 163
imdb.com: 8.00 (80 167)


Доп. информация
Бюджет: $55 000 000
Сборы в мире: $113 020 256
Сборы в США: $35 739 802
Мировая премьера: 20 мая 2008
Рейтинг R — Restricted. Подростки до 17 лет допускаются на фильм только в сопровождении одного из родителей
Изображение
Ограничение — до 17 лет требуется сопровождение родителя или взрослого опекуна (возраст может меняться в некоторых регионах). Данный рейтинг показывает, что оценочная комиссия заключила, что некоторый материал оценённого фильма предназначается для взрослых. Родители должны больше узнать о фильме прежде, чем взять на его просмотр детей. Рейтинг R также может быть назначен из-за используемого в фильме языка, темы, насилия, секса или изображения употребления наркотиков.
Свернуть
Свернуть
Награды и премии
Оскар, 2009 год
Номинации (3):
  • Лучшая женская роль (Анджелина Джоли)
  • Лучшая работа оператора
  • Лучшие декорации

Золотой глобус, 2009 год
Номинации (2):
  • Лучшая женская роль (драма) (Анджелина Джоли)
  • Лучший саундтрек

Британская академия, 2009 год
Номинации (8):
  • Лучшая женская роль (Анджелина Джоли)
  • Лучший режиссер (Клинт Иствуд)
  • Лучший оригинальный сценарий
  • Лучшая работа оператора
  • Лучшие костюмы
  • Лучший звук
  • Лучший монтаж
  • Лучшая работа художника-постановщика

Каннский кинофестиваль, 2008 год
Номинации (1):
  • Золотая пальмовая ветвь
Свернуть
Знаете ли вы, что...
* В переводе с английского давшее название фильму слово «changeling» означает дитя волшебного существа — эльфа, тролля или феи — которое те оставляют взамен похищенного человеческого ребенка.
* Дважды в фильме, персонаж Анджелины Джоли, Кристина, произносит фразу: «Никогда не начинай драку, но всегда заканчивай её». Это то же самое выражение, которое, по словам Капитана Джона Шеридана, говорил ему отец, и звучавшее в 90-х годах в сериале «Вавилон 5» (1994), сценарий которого также был написан Дж. Майклом Стражински.
* В некоторых кинотеатрах фильм вышел в прокат под названием «Странник» («Nomad»).
* Первоначально фильм собирался снимать Рон Ховард, но жёсткий график не позволил ему участвовать в проекте, и он остался только продюсером, предложив режиссёрское кресло Иствуду.
* На роль Кристин Коллинз рассматривались Хилари Суэнк и Риз Уизерспун.
* По окончании съёмок режиссёр Клинт Иствуд «пригласил» всю съёмочную группу в 18-ю комнату психиатрической лечебницы (ту самую, где пациентам делали электрошок).
* Лос-Анджелес 20-х годов создавали на компьютере. Например, пририсовывали рельсы для трамваев.
* Картина основана на реальных событиях. Серия похищений и убийств мальчиков в Калифорнии, совершенных в 1928 году, известна под названием «Виневилльские убийства в курятнике».
* В фильме зрителю показывают, что в психиатрических лечебницах в то время использовалась электрошоковая терапия, хотя в действительности она стала применяться только десять лет спустя.
Свернуть

Качество: BDRip 720p
Формат: Matroska
Видео: x.264; 1280x532; ~5080 kbps; 23.976 fps; 0.311 bit/pixel
Аудио #1: DTS; 768 kbps; 48 kHz; 6 channels [RUS]
Аудио #2: DTS; 1536 kbps; 48 kHz; 6 channels [ENG]
Аудио #3: Vorbis; 80 kbps; 48 kHz; 2 channels [COMM]

MediaInfo
General
Unique ID : 239569773346779502171640236960313691589 (0xB43B75C441431251ADFD870AA81ECDC5)
Complete name : J:\Changeling.2008.BDRip.720p[R.G.KiNOvNiNO].mkv
Format : Matroska
File size : 7.30 GiB
Duration : 2h 21mn
Overall bit rate : 7 365 Kbps
Movie name : Changeling (2008) 720p
Encoded date : UTC 2009-02-26 19:26:33
Writing application : mkvmerge v2.4.2 ('Oh My God') built on Jan 18 2009 17:30:28
Writing library : libebml v0.7.7 + libmatroska v0.8.1
Cover : Yes / Yes / Yes

Video
ID : 1
Format : AVC
Format/Info : Advanced Video Codec
Format profile : High@L4.1
Format settings, CABAC : Yes
Format settings, ReFrames : 10 frames
Codec ID : V_MPEG4/ISO/AVC
Duration : 2h 21mn
Bit rate : 5 080 Kbps
Width : 1 280 pixels
Height : 532 pixels
Display aspect ratio : 2.40:1
Frame rate : 23.976 fps
Color space : YUV
Chroma subsampling : 4:2:0
Bit depth : 8 bits
Scan type : Progressive
Bits/(Pixel*Frame) : 0.311
Stream size : 4.83 GiB (66%)
Writing library : x264 core 66 r1114M a933a3e
Encoding settings : cabac=1 / ref=10 / deblock=1:-3:-3 / analyse=0x3:0x133 / me=umh / subme=9 / psy_rd=1.0:0.0 / mixed_ref=1 / me_range=28 / chroma_me=1 / trellis=2 / 8x8dct=1 / cqm=0 / deadzone=21,11 / chroma_qp_offset=-2 / threads=6 / nr=0 / decimate=0 / mbaff=0 / bframes=3 / b_pyramid=1 / b_adapt=2 / b_bias=0 / direct=3 / wpredb=1 / keyint=250 / keyint_min=25 / scenecut=40(pre) / rc=2pass / bitrate=5080 / ratetol=1.0 / qcomp=0.60 / qpmin=10 / qpmax=51 / qpstep=4 / cplxblur=20.0 / qblur=0.5 / ip_ratio=1.40 / pb_ratio=1.30 / aq=1:0.60
Language : English

Audio #1
ID : 2
Format : DTS
Format/Info : Digital Theater Systems
Codec ID : A_DTS
Duration : 2h 21mn
Bit rate mode : Constant
Bit rate : 755 Kbps
Channel(s) : 6 channels
Channel positions : Front: L C R, Side: L R, LFE
Sampling rate : 48.0 KHz
Bit depth : 24 bits
Compression mode : Lossy
Stream size : 766 MiB (10%)
Title : Russian DTS 5.1 768 Kbps
Language : Russian

Audio #2
ID : 3
Format : DTS
Format/Info : Digital Theater Systems
Codec ID : A_DTS
Duration : 2h 21mn
Bit rate mode : Constant
Bit rate : 1 510 Kbps
Channel(s) : 6 channels
Channel positions : Front: L C R, Side: L R, LFE
Sampling rate : 48.0 KHz
Bit depth : 24 bits
Compression mode : Lossy
Stream size : 1.50 GiB (20%)
Title : English DTS 5.1 1536 Kbps
Language : English

Audio #3
ID : 4
Format : Vorbis
Format settings, Floor : 1
Codec ID : A_VORBIS
Duration : 2h 21mn
Bit rate mode : Constant
Bit rate : 80.0 Kbps
Channel(s) : 2 channels
Sampling rate : 48.0 KHz
Compression mode : Lossy
Stream size : 81.2 MiB (1%)
Title : English Commentary [Vorbis 2.0, 80 Kbps]
Writing library : libVorbis 1.2 (UTC 2007-06-22)
Language : English

Text #1
ID : 5
Format : ASS
Codec ID : S_TEXT/ASS
Codec ID/Info : Advanced Sub Station Alpha
Compression mode : Lossless
Language : English

Text #2
ID : 6
Format : ASS
Codec ID : S_TEXT/ASS
Codec ID/Info : Advanced Sub Station Alpha
Compression mode : Lossless
Language : Slovenian
Свернуть

Скриншоты

Изображение

Изображение

Изображение

Свернуть
_________________
«you failed because you had the wrong dream...»
Не в сети
Профиль  
 Добавлено: 2012-03-11 22:26 (спустя 7 месяцев)
Стаж: 7 лет 9 месяцев
Сообщений: 120
Лайков: 7
Отличный фильм!
Удивляюсь, почему так мало скачано?
Не в сети
Профиль  
 Добавлено: 2012-03-13 20:40 (спустя 1 день 22 часа)
Top-seeder
Стаж: 9 лет 1 месяц
Сообщений: 748
Спасибок: 636
Лайков: 3
Готовьте тазик для слёз, некоторым два понадобится, серьёзно. Фильм супер.
Не в сети
Профиль  
 Добавлено: 2014-01-07 12:22 (спустя 1 год 9 месяцев)
Стаж: 4 года 1 месяц
Сообщений: 17
Дайте скачать, пожалуйста!
Не в сети
Профиль  
Начать новую темуОтветить на тему  [ Сообщений: 4 ] 
Вы не можете начинать темы
Вы не можете отвечать на сообщения
Вы не можете редактировать свои сообщения
Вы не можете удалять свои сообщения