Правила форума

  • В этом разделе создание новых тем Запрещено.
  • Для создания новых тем пользуйтесь Корневым разделом DVD и HD фильмы.
Начать новую темуОтветить на тему  [ 1 сообщение ] 
Торрент файл
Размер: 11.26 GB • Зарегистрирован: 4 года 5 месяцев • Статус: T Временный релиз
Скачан: 15 раз • Желающих скачать: 0 • Поблагодарили: 4 раза
 Раздают: 0  |  0 KB/s  ]   Качают: 0  |  0 KB/s  ] 
 Полного источника не было 3 года 2 месяца 
Сообщения
 Добавлено: 2012-06-11 20:43
Модератор релиз-группы
Аватара пользователя
Стаж: 9 лет 1 месяц
Возраст: 97
Сообщений: 11660
Спасибок: 6532
Лайков: 269
Подмена / Switch

Изображение

Год выпуска: 2011
Страна: Франция
Жанр: триллер, криминал, боевик
Продолжительность: 01:43:41
Перевод: Любительский (двухголосый закадровый) keyaltos & ИринаЮС
Оригинальная аудиодорожка(Французский)
Субтитры: Русские

Режиссёр: Фредерик Шёндёрфер / Frederic Schoendoerffer

В ролях: Карин Ванасс, Эрик Кантона, Мехди Неббу, Орельен Рекуан, Карина Теста, Бруно Тодескини, Максим Рой, Нисеема Софи, Фочер Стефан, Гуэрин-Тилли и др.

Описание: Не имея никаких планов, 25-летняя дизайнер моды из Канады Софи с тоской смотрит на приближающийся летний отпуск. Попавшийся ей на глаза сайт в интернете предлагает обмен домами, и взамен своего дома она на месяц получает апартаменты с видом на Эйфелеву башню в Париже.
Первый день на новом месте был полной идиллией, но на утро она пробуждается от вторжения полиции. В соседней комнате находят обезглавленное тело, а сама Софи оказывается не способной доказать полиции, что она не владелица квартиры Бенедикт Серто. Ловушка перед ней быстро захлопывается.

Изображение
Качество: BDRip 1080p
Формат: MKV
Видео кодек: x264
Аудио кодек: AC3 / DTS
Видео: MPEG-4 AVC Video / 14.3 Mbps / 1920x1080p / 23.976 fps / 16:9 / 0.288 bit/pix
Аудио #1: Russian / AC3 / 5.1 / 448 Kbps / 48 kHz / 16-bit (DVO keyaltos & ИринаЮС)
Аудио #2: French / DTS / 5.1 / 755 Kbps / 48 kHz / 24-bit (Оригинал)
скриншоты
Изображение

Изображение

Изображение
Свернуть
Mi
Format : Matroska
Format version : Version 2
File size : 11.3 GiB
Duration : 1h 43mn
Overall bit rate : 15.5 Mbps
Movie name : GORENOISE
Encoded date : UTC 2012-06-11 06:12:54
Writing application : mkvmerge v5.4.0 ('Piper') built on Mar 10 2012 13:34:39
Writing library : libebml v1.2.3 + libmatroska v1.3.0

Video
ID : 1
Format : AVC
Format/Info : Advanced Video Codec
Format profile : High@L4.1
Format settings, CABAC : Yes
Format settings, ReFrames : 4 frames
Codec ID : V_MPEG4/ISO/AVC
Duration : 1h 43mn
Bit rate : 14.3 Mbps
Width : 1 920 pixels
Height : 1 080 pixels
Display aspect ratio : 16:9
Frame rate : 23.976 fps
Color space : YUV
Chroma subsampling : 4:2:0
Bit depth : 8 bits
Scan type : Progressive
Bits/(Pixel*Frame) : 0.288
Stream size : 10.2 GiB (90%)
Title : GORENOISE
Writing library : x264 core 120 r2164 da19765
Encoding settings : cabac=1 / ref=4 / deblock=1:-3:-3 / analyse=0x3:0x133 / me=umh / subme=10 / psy=1 / psy_rd=1.00:0.00 / mixed_ref=1 / me_range=48 / chroma_me=1 / trellis=2 / 8x8dct=1 / cqm=0 / deadzone=21,11 / fast_pskip=1 / chroma_qp_offset=-2 / threads=12 / sliced_threads=0 / nr=0 / decimate=0 / interlaced=0 / bluray_compat=0 / constrained_intra=0 / bframes=7 / b_pyramid=2 / b_adapt=2 / b_bias=0 / direct=3 / weightb=1 / open_gop=0 / weightp=2 / keyint=250 / keyint_min=23 / scenecut=40 / intra_refresh=0 / rc_lookahead=60 / rc=2pass / mbtree=0 / bitrate=14329 / ratetol=1.0 / qcomp=0.60 / qpmin=0 / qpmax=69 / qpstep=4 / cplxblur=20.0 / qblur=0.5 / vbv_maxrate=30000 / vbv_bufsize=30000 / nal_hrd=none / ip_ratio=1.50 / pb_ratio=1.30 / aq=1:1.00
Language : French
Default : Yes
Forced : No

Audio #1
ID : 2
Format : AC-3
Format/Info : Audio Coding 3
Mode extension : CM (complete main)
Format settings, Endianness : Big
Codec ID : A_AC3
Duration : 1h 43mn
Bit rate mode : Constant
Bit rate : 448 Kbps
Channel(s) : 6 channels
Channel positions : Front: L C R, Side: L R, LFE
Sampling rate : 48.0 KHz
Bit depth : 16 bits
Compression mode : Lossy
Stream size : 332 MiB (3%)
Title : Любительский (двухголосый закадровый) keyaltos & ИринаЮС
Language : Russian
Default : Yes
Forced : No

Audio #2
ID : 3
Format : DTS
Format/Info : Digital Theater Systems
Codec ID : A_DTS
Duration : 1h 43mn
Bit rate mode : Constant
Bit rate : 755 Kbps
Channel(s) : 6 channels
Channel positions : Front: L C R, Side: L R, LFE
Sampling rate : 48.0 KHz
Bit depth : 24 bits
Compression mode : Lossy
Stream size : 560 MiB (5%)
Title : Оригинал
Language : French
Default : No
Forced : No

Text
ID : 4
Format : UTF-8
Codec ID : S_TEXT/UTF8
Codec ID/Info : UTF-8 Plain Text
Language : Russian
Default : Yes
Forced : No

Свернуть
_________________
Изображение
Не в сети
Профиль  
Начать новую темуОтветить на тему  [ 1 сообщение ] 
Вы не можете начинать темы
Вы не можете отвечать на сообщения
Вы не можете редактировать свои сообщения
Вы не можете удалять свои сообщения