Правила форума

  • В этом разделе создание новых тем Запрещено.
  • Для создания новых тем пользуйтесь Корневым разделом DVD и HD фильмы.
Начать новую темуОтветить на тему  [ Сообщений: 4 ] 
Торрент файл
Размер: 7.09 GB • Зарегистрирован: 5 лет 1 месяц • Статус: Проверено
Скачан: 279 раз • Желающих скачать: 0 • Поблагодарили: 35 раз
 Раздают: 0  |  0 KB/s  ]   Качают: 0  |  0 KB/s  ] 
 Полного источника не было 2 года 10 месяцев 
Сообщения
 Добавлено: 2011-10-21 21:51
Руководитель релиз-группы
Аватара пользователя
Стаж: 8 лет 6 месяцев
Возраст: 25
Сообщений: 7578
Спасибок: 51914
Лайков: 14
Подстава
Setup

Изображение

Год выпуска: 2011
Страна: США

Жанр: боевик, драма, криминал
Продолжительность: 01:24:54
Перевод: Профессиональный (полное дублирование)

Режиссер: Майк Гюнтер
Сценарий: Майк Н., Майк Гюнтер
Продюсер: Фифти Сент, Рэндолл Эмметт, Джордж Ферлэ, Sefton Finchham, Тед Фокс
Оператор: Стив Гэйнер
Композитор: Ньютон Бразерс

В ролях: Фифти Сент, Райан Филипп, Брюс Уиллис, Рори Маркхам, Дженна Деван, Бретт Гранстафф, Рэнди Кутюр, Сьюзи Абромейт, Джеймс Римар, Уилл Юн Ли, Шон Тоуб, Эмбир Чайлдерс
Дублёры: Анатолий Пашнин, Владимир Остапчук, Владимир Терещук, Дмитрий Сова, Михаил Тишин, Эльдар Куртсеитов

Описание: Лучшие друзья Сони, Винсент и Дейв вместе выросли на бандитских улицах и зарабатывают на жизнь разбоем. Устав от такой жизни, они решают покончить с преступлениями, когда завершат последнее криминальное дело. Однако один из них решил прекратить преступный путь двоих других в полном смысле слова. После удачного, но кровавого похищения алмазов Винсент стреляет в своих товарищей и бросает их умирать. Дейв погибает на месте, а Сони чудом остается в живых. Теперь у него одна цель - отомстить предателю.
Релиз: Изображение

Качество: BDRip 1080p R5
Формат: MKV
Видео: x264 10,00 mb/s 1920x800 (2.400) at 23.976 fps
Аудио rus: 48 kHz, AC3 Dolby Digital, 3/2 (L,C,R,l,r) + LFE ch, ~448.00 kbps avg
Аудио eng: 48 kHz, DTS, 3/2 (L,C,R,l,r) + LFE ch, ~1510.00 kbps avg

"Скриншоты"

Изображение
Изображение
Изображение

Свернуть
"MediaInfo"
Общее
Полное имя                       : Set.Up.2011.BDRip.1080p.[ELEKTRI4KA].mkv
Формат                           : Matroska
Версия формата                   : Version 2
Размер файла                     : 7,09 Гбайт
Продолжительность                : 1 ч. 24 м.
Общий поток                      : 12,0 Мбит/сек
Название фильма                  : ELEKTRI4KA
Дата кодирования                 : UTC 2011-10-21 17:06:33
Программа кодирования            : mkvmerge v5.0.1 ('Es ist Sommer') built on Oct  9 2011 11:55:43
Библиотека кодирования           : libebml v1.2.2 + libmatroska v1.3.0

Видео
Идентификатор                    : 1
Формат                           : AVC
Формат/Информация                : Advanced Video Codec
Профиль формата                  : High@L4.1
Параметр CABAC формата           : Да
Параметр ReFrames формата        : 5 кадров
Идентификатор кодека             : V_MPEG4/ISO/AVC
Продолжительность                : 1 ч. 24 м.
Битрейт                          : 10000 Кбит/сек
Ширина                           : 1920 пикселей
Высота                           : 800 пикселей
Соотношение сторон               : 2,40:1
Частота кадров                   : 23,976 кадра/сек
Цветовое пространство            : YUV
Субдискретизация насыщенности    : 4:2:0
Битовая глубина                  : 8 бит
Тип развёртки                    : Прогрессивная
Бит/(Пиксели*Кадры)              : 0.272
Размер потока                    : 5,79 Гбайт (82%)
Заголовок                        : Set.Up.2011.1080p.BluRay.DTS.x264
Библиотека кодирования           : x264 core 116 r2074 2641b9e
Настройки программы              : cabac=1 / ref=5 / deblock=1:-2:-2 / analyse=0x3:0x113 / me=tesa / subme=11 / psy=1 / psy_rd=0.85:0.05 / mixed_ref=0 / me_range=24 / chroma_me=1 / trellis=2 / 8x8dct=1 / cqm=0 / deadzone=21,11 / fast_pskip=0 / chroma_qp_offset=-3 / threads=12 / sliced_threads=0 / nr=0 / decimate=1 / interlaced=0 / bluray_compat=0 / constrained_intra=0 / bframes=8 / b_pyramid=2 / b_adapt=2 / b_bias=0 / direct=3 / weightb=1 / open_gop=0 / weightp=2 / keyint=250 / keyint_min=23 / scenecut=40 / intra_refresh=0 / rc_lookahead=90 / rc=2pass / mbtree=1 / bitrate=10000 / ratetol=1.0 / qcomp=0.60 / qpmin=10 / qpmax=69 / qpstep=4 / cplxblur=20.0 / qblur=0.5 / ip_ratio=1.40 / aq=1:0.80
Язык                             : English

Аудио #1
Идентификатор                    : 2
Формат                           : AC-3
Формат/Информация                : Audio Coding 3
Расширение режима                : CM (complete main)
Идентификатор кодека             : A_AC3
Продолжительность                : 1 ч. 24 м.
Вид битрейта                     : Постоянный
Битрейт                          : 448 Кбит/сек
Каналы                           : 6 каналов
Расположение каналов             : Front: L C R, Side: L R, LFE
Частота                          : 48,0 КГц
Битовая глубина                  : 16 бит
Метод сжатия                     : С потерями
Размер потока                    : 272 Мбайт (4%)
Язык                             : Russian

Аудио #2
Идентификатор                    : 3
Формат                           : DTS
Формат/Информация                : Digital Theater Systems
Идентификатор кодека             : A_DTS
Продолжительность                : 1 ч. 24 м.
Вид битрейта                     : Постоянный
Битрейт                          : 1510 Кбит/сек
Каналы                           : 6 каналов
Расположение каналов             : Front: L C R, Side: L R, LFE
Частота                          : 48,0 КГц
Битовая глубина                  : 24 бит
Метод сжатия                     : С потерями
Размер потока                    : 917 Мбайт (13%)
Язык                             : English

Текст
Идентификатор                    : 4
Формат                           : UTF-8
Идентификатор кодека             : S_TEXT/UTF8
Идентификатор кодека/Информация  : UTF-8 Plain Text
Язык                             : English
Свернуть
Не в сети
Профиль  
 Добавлено: 2011-10-22 09:26 (спустя 11 часов)
Модератор релиз-группы
Аватара пользователя
Стаж: 9 лет 1 месяц
Возраст: 97
Сообщений: 11660
Спасибок: 6533
Лайков: 269
Вилис видимо сильно поиздержался (или постарел :hi_hi_hi: ), раз снимается таких "шедеврах"
_________________
Изображение
Не в сети
Профиль  
 Добавлено: 2011-10-22 19:07 (спустя 9 часов)
Аватара пользователя
Стаж: 8 лет 3 месяца
Возраст: 43
Сообщений: 3290
Спасибок: 21012
Лайков: 3
Артурыч
И не говори ка :hi_hi_hi:
_________________
Изображение
Не в сети
Профиль  
 Добавлено: 2011-11-23 17:27 (спустя 1 месяц)
Аватара пользователя
Стаж: 7 лет 5 месяцев
Возраст: 25
Сообщений: 14
сначало оценю, потом отпишусь, но автору все равно спасибо :)
Не в сети
Профиль  
Начать новую темуОтветить на тему  [ Сообщений: 4 ] 
Вы не можете начинать темы
Вы не можете отвечать на сообщения
Вы не можете редактировать свои сообщения
Вы не можете удалять свои сообщения