Правила форума

  • В этом разделе создание новых тем Запрещено.
  • Для создания новых тем пользуйтесь Корневым разделом DVD и HD фильмы.
Начать новую темуОтветить на тему  [ Сообщений: 4 ] 
Торрент файл
Размер: 4.63 GB • Зарегистрирован: 5 лет 1 месяц • Статус: Проверено
Скачан: 71 раз • Желающих скачать: 0 • Поблагодарили: 9 раз
 Раздают: 0  |  0 KB/s  ]   Качают: 0  |  0 KB/s  ] 
 Полного источника не было 1 год 8 месяцев 
Сообщения
 Добавлено: 2011-09-13 05:25
Top-releaser
Аватара пользователя
Стаж: 8 лет 7 месяцев
Сообщений: 1286
Спасибок: 3421
Лайков: 7
Подстава / Setup

Изображение
Год выпуска: 2011
Страна: США
Жанр: боевик, драма, криминал
Продолжительность: 01:24:54
Перевод: Профессиональный (полное дублирование)

Режиссер: Майк Гюнтер
Сценарий: Майк Н., Майк Гюнтер
Продюсер: Фифти Сент, Рэндолл Эмметт, Джордж Ферлэ, Sefton Finchham, Тед Фокс
Оператор: Стив Гэйнер
Композитор: Ньютон Бразерс

В ролях: Фифти Сент (Sonny), Райан Филипп (Vincent Long), Брюс Уиллис (Biggs), Рори Маркхам (Markus), Дженна Деван (Mia), Бретт Гранстафф (Dave Hall), Рэнди Кутюр (Petey), Сьюзи Абромейт (Valerie), Джеймс Римар (William Long), Уилл Юн Ли (Joey), Шон Тоуб (Roth), Эмбир Чайлдерс (Waitress Haley)
Дублёры: Анатолий Пашнин, Владимир Остапчук, Владимир Терещук, Дмитрий Сова, Михаил Тишин, Эльдар Куртсеитов

Описание: Лучшие друзья Сони, Винсент и Дейв вместе выросли на бандитских улицах и зарабатывают на жизнь разбоем. Устав от такой жизни, они решают покончить с преступлениями, когда завершат последнее криминальное дело. Однако один из них решил прекратить преступный путь двоих других в полном смысле слова. После удачного, но кровавого похищения алмазов Винсент стреляет в своих товарищей и бросает их умирать. Дейв погибает на месте, а Сони чудом остается в живых. Теперь у него одна цель - отомстить предателю.

Релиз: Изображение Раздача: Изображение

Изображение

Бюджет: $22 000 000
Мировая премьера: 20 сентября 2011

Качество: BDRip
Формат: Matroska
Видео: AVC; 1280x534 (2.40:1); 5863 kbps; 23,976 fps; 0,358 bit/pixel
Аудио №1: Russian; AC3; 448 kbps; CBR; 6 channels; 16 bit
Аудио №2: Russian; DTS; 1509 kbps; CBR; 6 channels; 24 bit

Субтитры: English
MediaInfo
Общее
Уникальный идентификатор : 237105547303251316866828238918445599440 (0xB260DE0ADB684DAB9E4EB467BBE28AD0)
Полное имя : E:\Видео\Podstava.2011.D.BDRip.720p.ELEKTRI4KA.mkv
Формат : Matroska
Версия формата : Version 2
Размер файла : 4,63 Гбайт
Продолжительность : 1 ч. 24 м.
Общий поток : 7813 Кбит/сек
Название фильма : Setup.2011.720p.BluRay.DTS.x264-DON-APR-ELEKTRI4KA
Дата кодирования : UTC 2011-10-21 16:00:14
Программа кодирования : mkvmerge v5.0.1 ('Es ist Sommer') built on Oct 9 2011 11:55:43
Библиотека кодирования : libebml v1.2.2 + libmatroska v1.3.0

Видео
Идентификатор : 1
Формат : AVC
Формат/Информация : Advanced Video Codec
Профиль формата : High@L4.1
Параметр CABAC формата : Да
Параметр ReFrames формата : 9 кадров
Параметры GOP формата : M=1, N=43
Режим смешивания : Header stripping
Идентификатор кодека : V_MPEG4/ISO/AVC
Продолжительность : 1 ч. 24 м.
Битрейт : 5863 Кбит/сек
Ширина : 1280 пикс.
Высота : 534 пикс.
Соотношение сторон : 2,40:1
Частота кадров : 23,976 кадр/сек
Цветовое пространство : YUV
Подвыборка цветности : 4:2:0
Битовая глубина : 8 бит
Тип развёртки : Прогрессивная
Бит/(Пиксели*Кадры) : 0.358
Размер потока : 3,38 Гбайт (73%)
Заголовок : Setup.2011.720p.BluRay.DTS.x264-DON
Библиотека кодирования : x264 core 116 r2074 2641b9e
Настройки программы : cabac=1 / ref=9 / deblock=1:-3:-3 / analyse=0x3:0x133 / me=umh / subme=10 / psy=1 / psy_rd=1.08:0.07 / mixed_ref=1 / me_range=64 / chroma_me=1 / trellis=2 / 8x8dct=1 / cqm=0 / deadzone=21,11 / fast_pskip=1 / chroma_qp_offset=-3 / threads=12 / sliced_threads=0 / nr=0 / decimate=1 / interlaced=0 / bluray_compat=0 / constrained_intra=0 / bframes=8 / b_pyramid=2 / b_adapt=2 / b_bias=0 / direct=3 / weightb=1 / open_gop=1 / weightp=2 / keyint=250 / keyint_min=23 / scenecut=40 / intra_refresh=0 / rc_lookahead=120 / rc=2pass / mbtree=1 / bitrate=5863 / ratetol=1.0 / qcomp=0.60 / qpmin=10 / qpmax=69 / qpstep=4 / cplxblur=20.0 / qblur=0.5 / ip_ratio=1.40 / aq=1:0.80
Язык : English

Аудио #1
Идентификатор : 2
Формат : AC-3
Формат/Информация : Audio Coding 3
Расширение режима : CM (complete main)
Режим смешивания : Header stripping
Идентификатор кодека : A_AC3
Продолжительность : 1 ч. 24 м.
Вид битрейта : Постоянный
Битрейт : 448 Кбит/сек
Каналы : 6 каналов
Расположение каналов : Front: L C R, Side: L R, LFE
Частота : 48,0 КГц
Битовая глубина : 16 бит
Метод сжатия : С потерями
Размер потока : 272 Мбайт (6%)
Заголовок : DD @ 448 kbs 5.1
Язык : Russian

Аудио #2
Идентификатор : 3
Формат : DTS
Формат/Информация : Digital Theater Systems
Режим смешивания : Header stripping
Идентификатор кодека : A_DTS
Продолжительность : 1 ч. 24 м.
Вид битрейта : Постоянный
Битрейт : 1510 Кбит/сек
Каналы : 6 каналов
Расположение каналов : Front: L C R, Side: L R, LFE
Частота : 48,0 КГц
Битовая глубина : 24 бит
Метод сжатия : С потерями
Размер потока : 917 Мбайт (19%)
Заголовок : DTS @ 1510 kbs 5.1
Язык : Russian

Текст
Идентификатор : 4
Формат : UTF-8
Идентификатор кодека : S_TEXT/UTF8
Идентификатор кодека/Информация : UTF-8 Plain Text
Заголовок : Full
Язык : English

Меню
00:00:00.000 : en:00:00:00.000
00:05:57.607 : en:00:05:57.607
00:12:24.911 : en:00:12:24.911
00:18:02.123 : en:00:18:02.123
00:23:00.879 : en:00:23:00.879
00:30:54.352 : en:00:30:54.352
00:37:02.387 : en:00:37:02.387
00:42:14.073 : en:00:42:14.073
00:46:11.769 : en:00:46:11.769
00:51:07.314 : en:00:51:07.314
00:54:36.690 : en:00:54:36.690
01:00:48.812 : en:01:00:48.812
01:05:30.635 : en:01:05:30.635
01:10:15.670 : en:01:10:15.670
01:14:27.838 : en:01:14:27.838
01:19:21.090 : en:01:19:21.090

Свернуть

Скриншоты

Изображение

Изображение

Изображение

Изображение

Свернуть


Последний раз редактировалось Shamman 2011-10-21 23:00, всего редактировалось 1 раз.
Не в сети
Профиль  
 Добавлено: 2011-09-13 06:42 (спустя 1 час 16 минут)
Аватара пользователя
Стаж: 7 лет 5 месяцев
Возраст: 31
Сообщений: 321
Спасибок: 57
дубляж будет?
Не в сети
Профиль  
 Добавлено: 2011-10-21 23:00 (спустя 1 месяц 8 дней)
Top-releaser
Аватара пользователя
Стаж: 8 лет 7 месяцев
Сообщений: 1286
Спасибок: 3421
Лайков: 7
Дубляж! Торрент перезалит!!!
Не в сети
Профиль  
 Добавлено: 2013-07-01 17:48 (спустя 1 год 8 месяцев)
Стаж: 6 лет
Сообщений: 5
Хм... фильм не о чем... смысла никокого... :ne_znayu: Посмотрел огорчился... 50cent воопще туда не влезает..... ТУпо нет актерского таланта :sh_ok:


Тема поднималась пользователем Shamman 2013-07-01 17:48.
Не в сети
Профиль  
Начать новую темуОтветить на тему  [ Сообщений: 4 ] 
Вы не можете начинать темы
Вы не можете отвечать на сообщения
Вы не можете редактировать свои сообщения
Вы не можете удалять свои сообщения