Правила форума

  • В этом разделе создание новых тем Запрещено.
  • Для создания новых тем пользуйтесь Корневым разделом DVD и HD фильмы.
Начать новую темуОтветить на тему  [ Сообщений: 3 ] 
Торрент файл
Размер: 2.87 GB • Зарегистрирован: 3 года 10 месяцев • Статус: T Временный релиз
Скачан: 22 раза • Желающих скачать: 0 • Поблагодарили: 9 раз
 Раздают: 0  |  0 KB/s  ]   Качают: 0  |  0 KB/s  ] 
 Полного источника не было 3 года 1 месяц 
Сообщения
 Добавлено: 2013-01-21 09:30
Модератор
Аватара пользователя
Стаж: 6 лет 10 месяцев
Возраст: 33
Сообщений: 5908
Спасибок: 61245
Лайков: 3540
Изображение

Подвал
Crawlspace


Год выпуска: 2012
Страна: Австралия
Жанр: триллер
Продолжительность: 01:26:59
Перевод: Любительский (одноголосый) [den904]
Режиссер: Джастин Дикс
Сценарий: Эдди Бару, Джастин Дикс, Адам Фостер
Продюсер: Джастин Дикс, John Finemore, Николас Шерри, Джеймс Хопп, Грег МакЛин
Оператор: Саймон Озолиньш
Композитор: Джэми Блэнкс, Jamie Murgatroyd
В ролях: Пета Сержант, Николас Белл, Эмбер Клэйтон, Дэвид Уайтели, Джон Брамптон, Эдди Бару, Сэмюэл Джонсон, Дитч Дэвей, Бриджет Невал, Флетчер Хамфрис, Лесли Симпсон, Ngaire Fair


Описание: Группа элитных спецназовцев отправляется под землю, чтобы спасти научных работников из секретной лаборатории, функционирующей в разветвленной подземной сети военных коммуникаций. Однако там солдаты подвергаются нападению неизвестной силы, к тому же они обнаруживают женщину непонятно как там оказавшуюся, ничего не помнящую, но явно ко всему причастную. Вскоре выясняется, что стены лаборатории стали полигоном для испытания чего-то зловещего...

Раздача группы: Изображение
Изображение
Качество: WEB-DLRip, 720p
Формат: MKV
Видео: AVC; 1280x536 (2.35:1); 3857 Kbps; 23,976 fps; 0,235 bit/pixel
Аудио №1: русский; AC3; 384 Kbps; CBR; 6 ch
Аудио №2: английский; AC3; 384 Kbps; CBR; 6 ch

mediainfo
Формат : Matroska
Версия формата : Version 1
Размер файла : 2,87 Гбайт
Продолжительность : 1 ч. 26 м.
Общий поток : 4719 Кбит/сек
Название фильма : -=REGIS1975=-Crawlspace=-goliaf.tv
Дата кодирования : UTC 2013-01-20 19:52:19
Программа кодирования : mkvmerge v2.1.0 ('Another Place To Fall') built on Aug 19 2007 13:40:07
Библиотека кодирования : libebml v0.7.7 + libmatroska v0.8.1

Видео
Идентификатор : 1
Формат : AVC
Формат/Информация : Advanced Video Codec
Профиль формата : Main@L3.1
Параметр CABAC формата : Нет
Параметр ReFrames формата : 2 кадра
Идентификатор кодека : V_MPEG4/ISO/AVC
Продолжительность : 1 ч. 26 м.
Битрейт : 3858 Кбит/сек
Ширина : 1280 пикселей
Высота : 536 пикселей
Соотношение сторон : 2,40:1
Режим частоты кадров : Постоянный
Частота кадров : 23,976 кадра/сек
Цветовое пространство : YUV
Субдискретизация насыщенности : 4:2:0
Битовая глубина : 8 бит
Тип развёртки : Прогрессивная
Бит/(Пиксели*Кадры) : 0.235
Размер потока : 2,34 Гбайт (82%)
Заголовок : -=REGIS1975=-Crawlspace=-goliaf.tv
Язык : English
Default : Да
Forced : Нет
Основные цвета : BT.709
Характеристики трансфера : BT.709
Коэффициенты матрицы : BT.709

Аудио #1
Идентификатор : 2
Формат : AC-3
Формат/Информация : Audio Coding 3
Расширение режима : CM (complete main)
Параметр Endianness формата : Big
Идентификатор кодека : A_AC3
Продолжительность : 1 ч. 26 м.
Вид битрейта : Постоянный
Битрейт : 384 Кбит/сек
Каналы : 6 каналов
Расположение каналов : Front: L C R, Side: L R, LFE
Частота : 48,0 КГц
Битовая глубина : 16 бит
Метод сжатия : С потерями
Размер потока : 239 Мбайт (8%)
Язык : Russian
Default : Да
Forced : Нет

Аудио #2
Идентификатор : 3
Формат : AC-3
Формат/Информация : Audio Coding 3
Расширение режима : CM (complete main)
Параметр Endianness формата : Big
Идентификатор кодека : A_AC3
Продолжительность : 1 ч. 26 м.
Вид битрейта : Постоянный
Битрейт : 384 Кбит/сек
Каналы : 6 каналов
Расположение каналов : Front: L C R, Side: L R, LFE
Частота : 48,0 КГц
Битовая глубина : 16 бит
Метод сжатия : С потерями
Размер потока : 239 Мбайт (8%)
Язык : English
Default : Нет
Forced : Нет

Меню
00:00:00.000 : en:1
00:09:20.000 : en:2
00:20:11.000 : en:3
00:32:14.000 : en:4
00:42:45.000 : en:5
00:49:00.000 : en:6
01:00:29.000 : en:7
01:05:49.000 : en:8
01:18:54.000 : en:9
01:22:35.000 : en:10
Свернуть
Скриншоты

Изображение
Изображение
Изображение
Изображение
Изображение
Изображение
Изображение
Изображение
Изображение
Изображение
Свернуть
_________________
ИзображениеИзображение Изображение
Изображение
 tany1984 и di-ys1 нравится это.
Не в сети
Профиль  
 Добавлено: 2013-01-21 19:41 (спустя 10 часов)
Аватара пользователя
Стаж: 6 лет 8 месяцев
Сообщений: 922
что на последнем скриншоте делает моя бывшая физичка??? :sh_ok:
Не в сети
Профиль  
 Добавлено: 2013-01-22 09:01 (спустя 13 часов)
Стаж: 8 лет 10 месяцев
Сообщений: 8

~Black ocean~:

что на последнем скриншоте делает моя бывшая физичка??? :sh_ok:
да по ходу школьники этот фильм сняли... зря время потратил
Не в сети
Профиль  
Начать новую темуОтветить на тему  [ Сообщений: 3 ] 
Вы не можете начинать темы
Вы не можете отвечать на сообщения
Вы не можете редактировать свои сообщения
Вы не можете удалять свои сообщения