Правила форума

  • В этом разделе создание новых тем Запрещено.
  • Для создания новых тем пользуйтесь Корневым разделом DVD и HD фильмы.
Начать новую темуОтветить на тему  [ Сообщений: 7 ] 
Торрент файл
Размер: 14.5 GB • Зарегистрирован: 5 лет 4 месяца • Статус: Проверено
Скачан: 58 раз • Желающих скачать: 0 • Поблагодарили: 18 раз
 Раздают: 0  |  0 KB/s  ]   Качают: 0  |  0 KB/s  ] 
 Полного источника не было 2 года 6 месяцев 
Сообщения
 Добавлено: 2011-08-02 17:50
Top-releaser
Аватара пользователя
Стаж: 8 лет 9 месяцев
Сообщений: 479
Спасибок: 20190
Лайков: 16
Поезд на Юму

3:10 to Yuma

Изображение


Год выпуска: 2007
Страна: Изображение США; Relativity Media
Слоган: «Time waits for one man»
Жанр: Боевик, драма, вестерн, криминал
Продолжительность: 02:02:30
Перевод: Профессиональный (полное дублирование), Оригинал
Субтитры: Русские, английские


Режиссёр: Джеймс Мэнголд / James Mangold

В ролях: Рассел Кроу, Кристиан Бэйл, Логан Лерман, Даллас Робертс, Бен Фостер, Питер Фонда, Винесса Шоу, Алан Тьюдик, Стивен Хартли, Гретхен Мол, Ленни Лофтин, Рио Александр

Описание:
После ареста известного бандита Бена Уэйда, его банда продолжает угрожать местным жителям. Ветеран Гражданской войны и владелец небольшого ранчо Дэн Эванс соглашается тайно доставить Уэйда в ближайший город с железнодорожной станцией, чтобы того доставили на поезде в форт Юма. Как только они останавливаются в гостинице, становится очевидным, что тайна раскрыта, и за обоими начинается охота…


Качество: BDRip 1080p
Формат: MKV

Видео: 1920x800 (2.40:1), 23,976 fps, 12435 kbps

Аудио 1: DTS 5.1, 48 kHz, 768 kbps 24 bit (Дубляж)
Аудио 2: DTS 5.1, 48 kHz, 1536 kbps 24 bit (Оригинал)
Аудио 3: DTS 5.1, 48 kHz, 1536 kbps 24 bit -4dB (Закадровый, П. Гланц и И. Королёва) - Отдельно
Аудио 4: AC3 5.1, 48 kHz, 448 kbps 16 bit (Закадровый, Ю. Немахов) - Отдельно

Изображение
MediaInfo

Общее
Уникальный идентификатор : 231428638288795204079732216057794239519 (0xAE1B88D18356B0FE98E88A2992059C1F)
Полное имя : C:\Users\Домашний\Desktop\Poezd na Yumu 2007 1080p BDRip[nntt]\Poezd na Yumu 2007 1080p.mkv
Формат : Matroska
Размер файла : 12,8 Гбайт
Продолжительность : 2 ч. 2 м.
Общий поток : 15,0 Мбит/сек
Дата кодирования : UTC 2010-10-03 05:19:23
Программа кодирования : mkvmerge v3.3.0 ('Language') built on Mar 24 2010 14:59:24
Библиотека кодирования : libebml v0.8.0 + libmatroska v0.9.0

Видео
Идентификатор : 1
Формат : AVC
Формат/Информация : Advanced Video Codec
Профиль формата : High@L4.1
Параметр CABAC формата : Да
Параметр ReFrames формата : 5 кадры
Идентификатор кодека : V_MPEG4/ISO/AVC
Продолжительность : 2 ч. 2 м.
Битрейт : 12,7 Мбит/сек
Ширина : 1920 пикс.
Высота : 800 пикс.
Соотношение сторон : 2,40:1
Частота кадров : 23,976 кадр/сек
Цветовое пространство : YUV
Подвыборка цветности : 4:2:0
Битовая глубина : 8 бит
Тип развёртки : Прогрессивная
Бит/(Пиксели*Кадры) : 0.346
Размер потока : 10,6 Гбайт (83%)
Заголовок : 1920x800, H.264, 12700 kbps
Библиотека кодирования : x264 core 102 r1666 d058f37
Настройки программы : cabac=1 / ref=5 / deblock=1:-3:-3 / analyse=0x3:0x113 / me=umh / subme=10 / psy=1 / psy_rd=1.10:0.15 / mixed_ref=1 / me_range=48 / chroma_me=1 / trellis=2 / 8x8dct=1 / cqm=2 / deadzone=21,11 / fast_pskip=0 / chroma_qp_offset=-2 / threads=12 / sliced_threads=0 / nr=0 / decimate=1 / interlaced=0 / constrained_intra=0 / bframes=6 / b_pyramid=2 / b_adapt=2 / b_bias=0 / direct=3 / weightb=1 / open_gop=0 / weightp=2 / keyint=250 / keyint_min=25 / scenecut=40 / intra_refresh=0 / rc_lookahead=60 / rc=2pass / mbtree=1 / bitrate=12725 / ratetol=2.0 / qcomp=0.70 / qpmin=10 / qpmax=51 / qpstep=4 / cplxblur=20.0 / qblur=0.5 / vbv_maxrate=50000 / vbv_bufsize=50000 / ip_ratio=1.40 / aq=1:0.80 / nal_hrd=none
Язык : English

Аудио #1
Идентификатор : 2
Формат : DTS
Формат/Информация : Digital Theater Systems
Идентификатор кодека : A_DTS
Продолжительность : 2 ч. 2 м.
Вид битрейта : Постоянный
Битрейт : 755 Кбит/сек
Канал(ы) : 6 канала(ов)
Расположение каналов : Front: L C R, Side: L R, LFE
Частота : 48,0 КГц
Битовая глубина : 24 бит
Метод сжатия : С потерями
Размер потока : 661 Мбайт (5%)
Заголовок : DTS 5.1, 768 kbps, Dub
Язык : Russian

Аудио #2
Идентификатор : 3
Формат : DTS
Формат/Информация : Digital Theater Systems
Идентификатор кодека : A_DTS
Продолжительность : 2 ч. 2 м.
Вид битрейта : Постоянный
Битрейт : 1510 Кбит/сек
Канал(ы) : 6 канала(ов)
Расположение каналов : Front: L C R, Side: L R, LFE
Частота : 48,0 КГц
Битовая глубина : 24 бит
Метод сжатия : С потерями
Размер потока : 1,29 Гбайт (10%)
Заголовок : DTS 5.1, 1536 kbps
Язык : English

Текст #1
Идентификатор : 4
Формат : UTF-8
Идентификатор кодека : S_TEXT/UTF8
Идентификатор кодека/Информация : UTF-8 Plain Text
Заголовок : Full
Язык : Russian

Текст #2
Идентификатор : 5
Формат : SSA
Идентификатор кодека : S_TEXT/SSA
Идентификатор кодека/Информация : Sub Station Alpha
Метод сжатия : Без потерь
Заголовок : Full
Язык : English

Свернуть
Знаете ли Вы что....

Изображение

Изначально Том Круз должен был сыграть Бена Уайда. Однако после того как он выбыл из проекта, согласие Рассела Кроу исполнить данную роль спасло проект от закрытия.
Рассел Кроу, Джеймс Мэнголд (режиссер) и Кэти Конрад (продюсер) единогласно согласились, что Кристиан Бэйл идеально подойдет на роль Дэна Эванса.
Когда еще Том Круз должен был сыграть Бена Уайда, кандидатура Эрика Баны рассматривалась на роль Дэна Эванса.
Небольшой рассказ Элмора Леонарда, лежащий в основе фильма, был впервые опубликован в «Dime Western Magazine» в 1953 году.
Пистолет Дэна Эванса (Кристиан Бэйл) – Кольт 1851 года.
В Контеншне, главные персонажи встречают трех маршалов. Первого из них зовут – Сэм Фуллер (персонаж назван по имени режиссера Сэмюэля Фуллера); второго – Харви Пелл (точно так же звали бывшего заместителя шерифа Уилла Кейна в «Ровно в полднень» (1952)); третьего – Уилл Доан (именно так изначально должны были звать Уилла Кейна в «Ровно в полдень»).
Куртку, в которой щеголял Чарли Принц в фильме, выбирал сам Бен. Как он сам говорит, он «просмотрел архивные фотографии, на которых преступники напоминали современных рок-звезд, и выбрал в музее кожаную куртку».
Изначально режиссер Джеймс Мэнголд хотел видеть Криса Кристоферсона в роли Байрона МакЭлроя, но из-за неудобного для последнего съемочного графика роль получил Питер Фонда.


Свернуть

Скриншоты
Изображение
Изображение
Изображение
Изображение
Изображение
Изображение
Изображение
Свернуть

Раздача:

Изображение
_________________
Изображение
Изображение
Не в сети
Профиль  
 Добавлено: 2011-08-03 13:57 (спустя 20 часов)
Кинокомментатор
Аватара пользователя
Стаж: 9 лет 1 месяц
Сообщений: 1332
Лайков: 54
посмотрел бы) тока раздающих нету:(
Не в сети
Профиль  
 Добавлено: 2011-08-03 13:57 (спустя 0 секунд)
Кинокомментатор
Аватара пользователя
Стаж: 9 лет 1 месяц
Сообщений: 1332
Лайков: 54
посмотрел бы) тока раздающих нету:(
_________________
Я ВКонтакте


Последний раз редактировалось Bronks 2011-08-03 13:58, всего редактировалось 1 раз.
Не в сети
Профиль  
 Добавлено: 2011-10-30 08:09 (спустя 2 месяца 26 дней)
Аватара пользователя
Стаж: 8 лет
Сообщений: 3
Спасибок: 5
Джокер, помогите раздать Поезд на Юму HD
Не в сети
Профиль  
 Добавлено: 2011-11-02 06:48 (спустя 2 дня 22 часа)
Аватара пользователя
Стаж: 5 лет 3 месяца
Сообщений: 17
да. помогите раздать.=)
_________________
Не бойтесь делать то, что не умеете. Помните, ковчег построил любитель, — профессионалы построили Титаник.
Не в сети
Профиль  
 Добавлено: 2012-01-11 20:23 (спустя 2 месяца 9 дней)
Аватара пользователя
Стаж: 5 лет 3 месяца
Сообщений: 17
у меня стоит в торенте. не знаю почему не раздает. как поддать копоти?
_________________
Не бойтесь делать то, что не умеете. Помните, ковчег построил любитель, — профессионалы построили Титаник.
Не в сети
Профиль  
 Добавлено: 2013-05-25 11:54 (спустя 1 год 4 месяца)
Стаж: 5 лет 9 месяцев
Сообщений: 2
Встаньте плз на раздачу :co_ol: :co_ol: :co_ol:
Не в сети
Профиль  
Начать новую темуОтветить на тему  [ Сообщений: 7 ] 
Вы не можете начинать темы
Вы не можете отвечать на сообщения
Вы не можете редактировать свои сообщения
Вы не можете удалять свои сообщения