Правила форума

  • В этом разделе создание новых тем Запрещено.
  • Для создания новых тем пользуйтесь Корневым разделом DVD и HD фильмы.
Начать новую темуОтветить на тему  [ Сообщений: 2 ] 
Торрент файл
Размер: 7.95 GB • Зарегистрирован: 4 года • Статус: Проверено
Скачан: 20 раз • Желающих скачать: 0 • Поблагодарили: 6 раз
 Раздают: 0  |  0 KB/s  ]   Качают: 0  |  0 KB/s  ] 
 Полного источника не было 20 дней 
Сообщения
 Добавлено: 2012-11-18 14:23
Top-releaser
Аватара пользователя
Стаж: 6 лет 7 месяцев
Сообщений: 2078
Спасибок: 3230
Лайков: 9
Изображение

Поезд на Юму
3:10 to Yuma


Год выпуска: 2007
Страна: США
Слоган: «Time waits for one man»
Жанр: боевик, драма, криминал, вестерн
Продолжительность: 02:02:30
Перевод: Профессиональный (полное дублирование)
Режиссер: Джеймс Мэнголд
Сценарий: Халстед Уэллс, Майкл Брандт, Дерек Хаас, Элмор Леонард
Продюсер: Кэти Конрад, Стюарт М. Бессер, Дикси Дж. Кэпп, Аарон Доунинг, Райан Кэвэна
Оператор: Фидон Папамайкл
Композитор: Марко Белтрами
В ролях: Рассел Кроу, Кристиан Бэйл, Логан Лерман, Даллас Робертс, Бен Фостер, Питер Фонда, Кевин Дюран, Алан Тьюдик, Люче Рэйнс, Гретхен Мол, Ленни Лофтин, Рио Александр
Бюджет: $55 000 000
Сборы в США: $53 606 916
Сборы в России: $1 100 387
Сборы в мире: $70 016 220
Мировая премьера: 21 августа 2007
Релиз на Blu-ray: 12 февраля 2009, «Парадиз Медиа»
Описание: После ареста известного бандита Бена Уэйда его банда продолжает угрожать местным жителям. Ветеран Гражданской войны и владелец небольшого ранчо Дэн Эванс соглашается тайно доставить Уэйда в ближайший город с железнодорожной станцией, чтобы того доставили на поезде в форт Юма. Как только они останавливаются в гостинице, становится очевидным, что тайна раскрыта, и за обоими начинается охота.
Раздача группы: Изображение

Изображение User Rating: 7.920 (29 558)
Изображение User Rating: 7.80 (150 888)
MPAA: R - Лицам до 17 лет обязательно присутствие взрослого
Качество: BDRip, 720p
Формат: Matroska
Видео: AVC; 1280x534 (2.35:1); 6061 Kbps; 23,976 fps; 0,370 bit/pixel
Аудио №1: Russian; AC3; 448 Kbps; CBR; 6 ch - Дубляж
Аудио №2: Russian; DTS; 1509 Kbps; CBR; 6 ch; 24 bit - П.Гланц и И.Королёва
Аудио №3: Russian; AC3; 448 Kbps; CBR; 6 ch - Ю.Немахов
Аудио №4: English; AC3; 640 Kbps; CBR; 6 ch
Субтитры: Russian, English

MediaInfo
Общее
Уникальный идентификатор : 188981978888398563670097198520637961977 (0x8E2C9AEEFB54DE3387EFA8925EE9B6F9)
Полное имя : Z:\WWW\TR-Downloads\3.10.to.Yuma.720p.[R.G.Daredevil].mkv
Формат : Matroska
Версия формата : Version 2
Размер файла : 7,95 Гбайт
Продолжительность : 2 ч. 2 м.
Общий поток : 9293 Кбит/сек
Название фильма : HANSMER
Дата кодирования : UTC 2011-02-09 19:59:31
Программа кодирования : mkvmerge v4.5.0 ('Speed of Light') сборка от Feb 1 2011 02:10:32
Библиотека кодирования : libebml v1.2.0 + libmatroska v1.1.0

Видео
Идентификатор : 1
Формат : AVC
Формат/Информация : Advanced Video Codec
Профиль формата : High@L4.1
Параметр CABAC формата : Да
Параметр ReFrames формата : 11 кадров
Идентификатор кодека : V_MPEG4/ISO/AVC
Продолжительность : 2 ч. 2 м.
Битрейт : 6245 Кбит/сек
Ширина : 1280 пикселей
Высота : 534 пикселя
Соотношение сторон : 2,40:1
Частота кадров : 23,976 кадра/сек
Цветовое пространство : YUV
Субдискретизация насыщенности : 4:2:0
Битовая глубина : 8 бит
Тип развёртки : Прогрессивная
Бит/(Пиксели*Кадры) : 0.381
Размер потока : 5,19 Гбайт (65%)
Заголовок : 3:10.to.Yuma.2007.Blu-ray.720p.x264
Библиотека кодирования : x264 core 113 r1884 7313bb5
Настройки программы : cabac=1 / ref=11 / deblock=1:-3:-3 / analyse=0x3:0x113 / me=esa / subme=10 / psy=1 / psy_rd=1.00:0.00 / mixed_ref=1 / me_range=32 / chroma_me=1 / trellis=2 / 8x8dct=1 / cqm=0 / deadzone=21,11 / fast_pskip=0 / chroma_qp_offset=-2 / threads=12 / sliced_threads=0 / nr=0 / decimate=1 / interlaced=0 / constrained_intra=0 / bframes=10 / b_pyramid=2 / b_adapt=2 / b_bias=0 / direct=3 / weightb=1 / open_gop=0 / weightp=2 / keyint=250 / keyint_min=23 / scenecut=40 / intra_refresh=0 / rc_lookahead=60 / rc=2pass / mbtree=0 / bitrate=6245 / ratetol=1.0 / qcomp=0.70 / qpmin=10 / qpmax=51 / qpstep=4 / cplxblur=20.0 / qblur=0.5 / vbv_maxrate=50000 / vbv_bufsize=62500 / nal_hrd=none / ip_ratio=1.40 / pb_ratio=1.30 / aq=1:1.00
Язык : English
Default : Да
Forced : Нет
Коэффициенты матрицы : BT.709-5, BT.1361, IEC 61966-2-4 709, SMPTE RP177

Аудио #1
Идентификатор : 2
Формат : AC-3
Формат/Информация : Audio Coding 3
Расширение режима : CM (complete main)
Параметр Endianness формата : Big
Идентификатор кодека : A_AC3
Продолжительность : 2 ч. 2 м.
Вид битрейта : Постоянный
Битрейт : 448 Кбит/сек
Каналы : 6 каналов
Расположение каналов : Front: L C R, Side: L R, LFE
Частота : 48,0 КГц
Битовая глубина : 16 бит
Метод сжатия : С потерями
Размер потока : 393 Мбайт (5%)
Заголовок : Dub
Язык : Russian
Default : Да
Forced : Нет

Аудио #2
Идентификатор : 3
Формат : DTS
Формат/Информация : Digital Theater Systems
Идентификатор кодека : A_DTS
Продолжительность : 2 ч. 2 м.
Вид битрейта : Постоянный
Битрейт : 1510 Кбит/сек
Каналы : 6 каналов
Расположение каналов : Front: L C R, Side: L R, LFE
Частота : 48,0 КГц
Битовая глубина : 24 бит
Метод сжатия : С потерями
Размер потока : 1,29 Гбайт (16%)
Заголовок : Glanz & Koroleva
Язык : Russian
Default : Нет
Forced : Нет

Аудио #3
Идентификатор : 4
Формат : AC-3
Формат/Информация : Audio Coding 3
Расширение режима : CM (complete main)
Параметр Endianness формата : Big
Идентификатор кодека : A_AC3
Продолжительность : 2 ч. 2 м.
Вид битрейта : Постоянный
Битрейт : 448 Кбит/сек
Каналы : 6 каналов
Расположение каналов : Front: L C R, Side: L R, LFE
Частота : 48,0 КГц
Битовая глубина : 16 бит
Метод сжатия : С потерями
Размер потока : 393 Мбайт (5%)
Заголовок : Nemahov
Язык : Russian
Default : Нет
Forced : Нет

Аудио #4
Идентификатор : 5
Формат : AC-3
Формат/Информация : Audio Coding 3
Расширение режима : CM (complete main)
Параметр Endianness формата : Big
Идентификатор кодека : A_AC3
Продолжительность : 2 ч. 2 м.
Вид битрейта : Постоянный
Битрейт : 640 Кбит/сек
Каналы : 6 каналов
Расположение каналов : Front: L C R, Side: L R, LFE
Частота : 48,0 КГц
Битовая глубина : 16 бит
Метод сжатия : С потерями
Размер потока : 561 Мбайт (7%)
Язык : English
Default : Нет
Forced : Нет

Текст #1
Идентификатор : 6
Формат : UTF-8
Идентификатор кодека : S_TEXT/UTF8
Идентификатор кодека/Информация : UTF-8 Plain Text
Язык : Russian
Default : Нет
Forced : Нет

Текст #2
Идентификатор : 7
Формат : UTF-8
Идентификатор кодека : S_TEXT/UTF8
Идентификатор кодека/Информация : UTF-8 Plain Text
Язык : English
Default : Нет
Forced : Нет

Меню
00:00:00.000 : en:00:00:00.000
00:07:32.285 : en:00:07:32.285
00:14:14.771 : en:00:14:14.771
00:19:05.936 : en:00:19:05.936
00:30:23.447 : en:00:30:23.447
00:36:40.698 : en:00:36:40.698
00:45:13.794 : en:00:45:13.794
00:51:59.033 : en:00:51:59.033
00:57:35.285 : en:00:57:35.285
01:05:47.026 : en:01:05:47.026
01:16:53.859 : en:01:16:53.859
01:24:57.968 : en:01:24:57.968
01:35:10.371 : en:01:35:10.371
01:43:55.896 : en:01:43:55.896
01:50:31.583 : en:01:50:31.583
01:54:52.135 : en:01:54:52.135
Свернуть
"Знаете ли Вы, что..."
  • Изначально Том Круз должен был сыграть Бена Уайда. Однако после того как он выбыл из проекта, согласие Рассела Кроу исполнить данную роль спасло проект от закрытия.
  • Рассел Кроу, Джеймс Мэнголд (режиссер) и Кэти Конрад (продюсер) единогласно согласились, что Кристиан Бэйл идеально подойдет на роль Дэна Эванса.
  • Когда еще Том Круз должен был сыграть Бена Уайда, кандидатура Эрика Баны рассматривалась на роль Дэна Эванса.
  • Небольшой рассказ Элмора Леонарда, лежащий в основе фильма, был впервые опубликован в «Dime Western Magazine» в 1953 году.
  • Пистолет Дэна Эванса (Кристиан Бэйл) - Кольт 1851 года.
  • В Контеншне, главные персонажи встречают трех маршалов. Первого из них зовут - Сэм Фуллер (персонаж назван по имени режиссера Сэмюэля Фуллера); второго - Харви Пелл (точно так же звали бывшего заместителя шерифа Уилла Кейна в «Ровно в полднень» (1952)); третьего - Уилл Доан (именно так изначально должны были звать Уилла Кейна в «Ровно в полдень»).
  • Куртку, в которой щеголял Чарли Принц в фильме, выбирал сам Бен. Как он сам говорит, он «просмотрел архивные фотографии, на которых преступники напоминали современных рок-звезд, и выбрал в музее кожаную куртку».
  • Изначально режиссер Джеймс Мэнголд хотел видеть Криса Кристоферсона в роли Байрона МакЭлроя, но из-за неудобного для последнего съемочного графика роль получил Питер Фонда.
  • Съёмки картины проходили с 23 октября 2006 года по 20 января 2007 года.
Свернуть
Скриншоты

Изображение
Изображение
Изображение
Изображение
Изображение
Свернуть
Не в сети
Профиль  
 Добавлено: 2015-05-30 15:23 (спустя 2 года 6 месяцев)
Стаж: 6 лет
Сообщений: 19
раздайте
Не в сети
Профиль  
Начать новую темуОтветить на тему  [ Сообщений: 2 ] 
Вы не можете начинать темы
Вы не можете отвечать на сообщения
Вы не можете редактировать свои сообщения
Вы не можете удалять свои сообщения