Правила форума

  • В этом разделе создание новых тем Запрещено.
  • Для создания новых тем пользуйтесь Корневым разделом DVD и HD фильмы.
Начать новую темуОтветить на тему  [ Сообщений: 3 ] 
Торрент файл
Размер: 5.34 GB • Зарегистрирован: 4 года 11 месяцев • Статус: Проверено
Скачан: 184 раза • Желающих скачать: 0 • Поблагодарили: 38 раз
 Раздают: 0  |  0 KB/s  ]   Качают: 0  |  0 KB/s  ] 
 Полного источника не было 3 года 
Сообщения
 Добавлено: 2011-12-26 05:46
Top-releaser
Аватара пользователя
Стаж: 8 лет 7 месяцев
Сообщений: 1286
Спасибок: 3420
Лайков: 7
Погоня / Abduction


«Сражаясь за правду, он борется за жизнь»

Изображение
Год выпуска: 2011
Страна: США
Жанр: боевик, триллер, драма, детектив
Продолжительность: 01:45:59
Перевод: Профессиональный (полное дублирование)

Режиссер: Джон Синглтон
Сценарий: Шоун Кристенсен
Продюсер: Даг Дэвисон, Эллен Голдсмит-Вейн, Дэн Лотнер, Рой Ли, Ли Столлман
Оператор: Питер Мензиес мл.
Композитор: Эд Ширмёр

В ролях: Тэйлор Лотнер (Nathan,), Лили Коллинз (Karen), Джейсон Айзекс (Kevin), Альфред Молина (Burton), Сигурни Уивер (Dr. Bennett), Мария Белло (Mara), Антоник Смит (Burns), Микаэл Нюквист (Kozlow), Дэнзел Уитакер (Gilly), Джейк Андолина (CIA Man), Ория Акима Эндрюс (Riah), Кен Арнольд (Thermal)
Дублёры: Илья Хвостиков (Nathan), Анастасия Нестеренко (Karen), Василий Дахненко (Kevin), Алексей Колган (Burton), Елена Соловьева (Dr. Bennett), Людмила Шувалова (Mara), Инна Королёва (Burns), Пётр Иващенко (Kozlow), Диомид Виноградов (Gilly)

Описание: Главный герой в один прекрасный день обнаруживает на сайте по розыску пропавших детей собственное фото. Отойдя от шока, он понимает, что родители похитили его и вырастили как собственного ребенка. Юноша начинает расследование, которое, в итоге, превращается в цепь жестоких и местами смертельно опасных событий.

Релиз: Изображение Раздача: Изображение

Изображение
Изображение

Бюджет: $35 000 000
Сборы в США: $28 087 155
Сборы в России: $2 950 525
Сборы в мире: $82 087 155
Мировая премьера: 23 августа 2011
Релиз на DVD: 17 января 2012, «West Video»
Релиз на Blu-ray: 17 января 2012, «West Video»


Качество: BDRip
Формат: Matroska
Видео: AVC; 1280x534 (2.40:1); 5258 kbps; 23,976 fps; 0,321 bit/pixel
Аудио №1: Russian; AC3; 448 kbps; CBR; 6 channels; 16 bit
Аудио №2: English; DTS; 1509 kbps; CBR; 6 channels; 24 bit

Субтитры: English
Изображение
MediaInfo
Общее
Уникальный идентификатор : 253206827641547930722030843098852702778 (0xBE7DDC742EE8846197DB23FC132B3A3A)
Полное имя : E:\Видео\Pogonya.2O11.D.BDRip.720p.[R.G.KINOvNINO].mkv
Формат : Matroska
Версия формата : Version 2
Размер файла : 5,34 Гбайт
Продолжительность : 1 ч. 45 м.
Общий поток : 7219 Кбит/сек
Название фильма : UNIONGANG.TV -TVB-
Дата кодирования : UTC 2011-12-25 16:21:30
Программа кодирования : mkvmerge v5.0.1 ('Es ist Sommer') built on Oct 9 2011 11:55:43
Библиотека кодирования : libebml v1.2.2 + libmatroska v1.3.0

Видео
Идентификатор : 1
Формат : AVC
Формат/Информация : Advanced Video Codec
Профиль формата : High@L4.1
Параметр CABAC формата : Да
Параметр ReFrames формата : 10 кадров
Идентификатор кодека : V_MPEG4/ISO/AVC
Продолжительность : 1 ч. 45 м.
Битрейт : 5258 Кбит/сек
Ширина : 1280 пикселей
Высота : 534 пикселя
Соотношение сторон : 2,40:1
Частота кадров : 23,976 кадра/сек
Цветовое пространство : YUV
Субдискретизация насыщенности : 4:2:0
Битовая глубина : 8 бит
Тип развёртки : Прогрессивная
Бит/(Пиксели*Кадры) : 0.321
Размер потока : 3,79 Гбайт (71%)
Заголовок : hahay0yo@CHD
Библиотека кодирования : x264 core 116 r2074 2641b9e
Настройки программы : cabac=1 / ref=10 / deblock=1:-3:-3 / analyse=0x3:0x113 / me=umh / subme=10 / psy=1 / psy_rd=1.10:0.15 / mixed_ref=1 / me_range=32 / chroma_me=1 / trellis=2 / 8x8dct=1 / cqm=2 / deadzone=21,11 / fast_pskip=0 / chroma_qp_offset=-2 / threads=12 / sliced_threads=0 / nr=0 / decimate=1 / interlaced=0 / bluray_compat=0 / constrained_intra=0 / bframes=6 / b_pyramid=2 / b_adapt=2 / b_bias=0 / direct=3 / weightb=1 / open_gop=0 / weightp=2 / keyint=250 / keyint_min=23 / scenecut=40 / intra_refresh=0 / rc_lookahead=60 / rc=2pass / mbtree=1 / bitrate=5258 / ratetol=1.0 / qcomp=0.60 / qpmin=1 / qpmax=63 / qpstep=4 / cplxblur=20.0 / qblur=0.5 / vbv_maxrate=40000 / vbv_bufsize=40000 / nal_hrd=none / ip_ratio=1.40 / aq=1:0.90
Язык : English
Default : Да
Forced : Нет

Аудио #1
Идентификатор : 2
Формат : AC-3
Формат/Информация : Audio Coding 3
Расширение режима : CM (complete main)
Идентификатор кодека : A_AC3
Продолжительность : 1 ч. 45 м.
Вид битрейта : Постоянный
Битрейт : 448 Кбит/сек
Каналы : 6 каналов
Расположение каналов : Front: L C R, Side: L R, LFE
Частота : 48,0 КГц
Битовая глубина : 16 бит
Метод сжатия : С потерями
Размер потока : 340 Мбайт (6%)
Заголовок : Dub
Язык : Russian
Default : Да
Forced : Нет

Аудио #2
Идентификатор : 3
Формат : DTS
Формат/Информация : Digital Theater Systems
Идентификатор кодека : A_DTS
Продолжительность : 1 ч. 45 м.
Вид битрейта : Постоянный
Битрейт : 1510 Кбит/сек
Каналы : 6 каналов
Расположение каналов : Front: L C R, Side: L R, LFE
Частота : 48,0 КГц
Битовая глубина : 24 бит
Метод сжатия : С потерями
Размер потока : 1,12 Гбайт (21%)
Язык : English
Default : Нет
Forced : Нет

Текст
Идентификатор : 4
Формат : UTF-8
Идентификатор кодека : S_TEXT/UTF8
Идентификатор кодека/Информация : UTF-8 Plain Text
Язык : English
Default : Нет
Forced : Нет

Свернуть

Скриншоты

Изображение

Изображение

Изображение

Изображение

Свернуть
Не в сети
Профиль  
 Добавлено: 2012-01-09 01:33 (спустя 13 дней)
Аватара пользователя
Стаж: 7 лет 5 месяцев
Возраст: 29
Сообщений: 118
Спасибок: 3
Лайков: 2
Спасибо, ходил в кино на него. Посмотрю ещё раз с удовольствием :a_g_a:
Не в сети
Профиль  
 Добавлено: 2013-06-13 18:59 (спустя 1 год 5 месяцев)
Top-releaser
Аватара пользователя
Стаж: 8 лет 7 месяцев
Сообщений: 1286
Спасибок: 3420
Лайков: 7
Пожалуйста, для Вас стараемся :a_g_a:


Тема поднималась пользователем Shamman 2013-06-13 18:59.
Не в сети
Профиль  
Начать новую темуОтветить на тему  [ Сообщений: 3 ] 
Вы не можете начинать темы
Вы не можете отвечать на сообщения
Вы не можете редактировать свои сообщения
Вы не можете удалять свои сообщения