Правила форума

  • В этом разделе создание новых тем Запрещено.
  • Для создания новых тем пользуйтесь Корневым разделом DVD и HD фильмы.
Начать новую темуОтветить на тему  [ 1 сообщение ] 
Торрент файл
Размер: 6.64 GB • Зарегистрирован: 1 год 5 месяцев • Статус: T Временный релиз
Скачан: 57 раз • Желающих скачать: 0 • Поблагодарили: 21 раз
 Раздают: 1  |  0 KB/s  ]   Качают: 0  |  0 KB/s  ] 
Сообщения
 Добавлено: 2015-06-27 08:29
DVD Release Group
Аватара пользователя
Стаж: 7 лет 1 месяц
Сообщений: 3546
Спасибок: 246990
Лайков: 1018
Похищение Фредди Хайнекена

Kidnapping Mr. Heineken


Изображение


Год выпуска: 2015
Страна: Бельгия, Великобритания, Нидерланды
Жанр: Боевик, триллер, драма, криминал
Продолжительность: 01:34:44
Перевод: Профессиональный (полное дублирование) чистый звук
Режиссер: Дэниэл Альфредсон
В ролях: Сэм Уортингтон, Энтони Хопкинс, Джим Стёрджесс, Райан Квантен, Роб Фуллер, Джемайма Уэст, Иоланта Кабау ван Касберген, Давид Денсик, Билли Слотер, Гас Родс
Описание: Осенью 1983 года Амстердам был потрясен одним из самых известных и дерзких преступлений 20 века: владелец одной из крупнейших в мире пивоварен Heineken — Альфред Хайнекен — был похищен вместе с личным шофером прямо из собственного автомобиля. Несколько друзей, которым очень нужны были деньги, решили не мелочиться и заработать много и сразу, похитив одного из самых богатых людей в стране. Проведя тщательную подготовку, свои намерения они осуществили. Преступники требовали у родственников в качестве выкупа сумасшедшую по тем временам сумму — 35 млн. голландских гульденов (около 16 млн. евро). Взамен обещали сохранить жизни обоим. Все полицейские силы Амстердама безуспешно пытались выйти на след похитителей, но те действовали безошибочно… Хайнекен провел 20 чудовищных дней, прикованный цепью к стене, в специально оборудованной звуконепроницаемой камере. Даже в таких нечеловеческих условиях, Фредди не ломается, он вступает в психологический поединок с главарем банды и побеждает. Однако, выиграть психологическую схватку и выжить — это две большие разницы. После получения требуемой суммы мошенники решают скрыться, оставив жертвы медленно умирать на привязи.
ИзображениеИзображение
Качество: BDRip 1080p
Формат: MKV
Видео кодек: H.264
Аудио кодек: MP3, DTS
Видео: 1920x808 23.98fps 9265kbps
Аудио:
Аудио Rus: MP3 48kHz 2ch 128Kbps
Аудио Eng: DTS 48kHz 6ch 1510Kbps
"MediaInfo"
Формат : Matroska
Версия формата : Version 4 / Version 2
Размер файла : 6,64 Гбайт
Продолжительность : 1 ч. 34 м.
Общий поток : 10,0 Мбит/сек
Дата кодирования : UTC 2015-06-26 23:52:42
Программа кодирования : mkvmerge v7.2.0 ('On Every Street') 64bit built on Sep 13 2014 15:52:10
Библиотека кодирования : libebml v1.3.0 + libmatroska v1.4.1
DURATION : 01:34:44.532000000
NUMBER_OF_FRAMES : 217611
NUMBER_OF_BYTES : 90952516
_STATISTICS_WRITING_APP : mkvmerge v7.2.0 ('On Every Street') 64bit built on Sep 13 2014 15:52:10
_STATISTICS_WRITING_DATE_UTC : 2015-06-26 23:52:42
_STATISTICS_TAGS : BPS DURATION NUMBER_OF_FRAMES NUMBER_OF_BYTES

Видео
Идентификатор : 1
Формат : AVC
Формат/Информация : Advanced Video Codec
Профиль формата : High@L4.1
Параметр CABAC формата : Да
Параметр ReFrames формата : 5 кадров
Идентификатор кодека : V_MPEG4/ISO/AVC
Продолжительность : 1 ч. 34 м.
Битрейт : 9265 Кбит/сек
Ширина : 1920 пикселей
Высота : 808 пикселей
Соотношение сторон : 2,40:1
Режим частоты кадров : Постоянный
Частота кадров : 23,976 кадра/сек
Цветовое пространство : YUV
Субдискретизация насыщенности : 4:2:0
Битовая глубина : 8 бит
Тип развёртки : Прогрессивная
Бит/(Пиксели*Кадры) : 0.249
Размер потока : 6,00 Гбайт (90%)
Библиотека кодирования : x264 core 144 r2525 40bb568
Настройки программы : cabac=1 / ref=5 / deblock=1:0:0 / analyse=0x3:0x133 / me=umh / subme=7 / psy=1 / psy_rd=1.00:0.00 / mixed_ref=1 / me_range=16 / chroma_me=1 / trellis=1 / 8x8dct=1 / cqm=0 / deadzone=21,11 / fast_pskip=0 / chroma_qp_offset=-2 / threads=18 / lookahead_threads=3 / sliced_threads=0 / nr=0 / decimate=1 / interlaced=0 / bluray_compat=0 / constrained_intra=0 / bframes=3 / b_pyramid=2 / b_adapt=1 / b_bias=0 / direct=1 / weightb=1 / open_gop=0 / weightp=2 / keyint=250 / keyint_min=23 / scenecut=40 / intra_refresh=0 / rc_lookahead=40 / rc=2pass / mbtree=1 / bitrate=9265 / ratetol=1.0 / qcomp=0.60 / qpmin=0 / qpmax=69 / qpstep=4 / cplxblur=20.0 / qblur=0.5 / ip_ratio=1.40 / aq=1:1.00
Язык : English
Default : Да
Forced : Нет
DURATION : 01:34:44.480000000
NUMBER_OF_FRAMES : 136291
NUMBER_OF_BYTES : 6579320314
_STATISTICS_WRITING_APP : mkvmerge v7.2.0 ('On Every Street') 64bit built on Sep 13 2014 15:52:10
_STATISTICS_WRITING_DATE_UTC : 2015-06-26 23:52:42
_STATISTICS_TAGS : BPS DURATION NUMBER_OF_FRAMES NUMBER_OF_BYTES

Аудио #1
Идентификатор : 2
Формат : MPEG Audio
Версия формата : Version 1
Профиль формата : Layer 3
Идентификатор кодека : A_MPEG/L3
Идентификатор кодека/Подсказка : MP3
Продолжительность : 1 ч. 34 м.
Вид битрейта : Постоянный
Битрейт : 128 Кбит/сек
Каналы : 2 канала
Частота : 44,1 КГц
Метод сжатия : С потерями
Размер потока : 86,7 Мбайт (1%)
Язык : Russian
Default : Да
Forced : Нет

Аудио #2
Идентификатор : 3
Формат : AC-3
Формат/Информация : Audio Coding 3
Расширение режима : CM (complete main)
Параметр Endianness формата : Big
Идентификатор кодека : A_AC3
Продолжительность : 1 ч. 34 м.
Вид битрейта : Постоянный
Битрейт : 640 Кбит/сек
Каналы : 6 каналов
Расположение каналов : Front: L C R, Side: L R, LFE
Частота : 48,0 КГц
Битовая глубина : 16 бит
Метод сжатия : С потерями
Размер потока : 434 Мбайт (6%)
Заголовок : Original
Язык : English
Default : Нет
Forced : Нет

Текст
Идентификатор : 4
Формат : UTF-8
Идентификатор кодека : S_TEXT/UTF8
Идентификатор кодека/Информация : UTF-8 Plain Text
Язык : English
Default : Нет
Forced : Нет

Меню
00:00:00.000 : en:00:00:00.000
00:07:44.381 : en:00:07:44.381
00:16:22.148 : en:00:16:22.148
00:25:26.150 : en:00:25:26.150
00:33:28.548 : en:00:33:28.548
00:39:29.450 : en:00:39:29.450
00:49:56.785 : en:00:49:56.785
00:57:10.886 : en:00:57:10.886
01:04:19.022 : en:01:04:19.022
01:12:05.112 : en:01:12:05.112
01:21:20.793 : en:01:21:20.793
01:29:26.945 : en:01:29:26.945
Свернуть

"Скриншоты"
Изображение
Изображение
Изображение
Свернуть
Не в сети
Профиль  
Начать новую темуОтветить на тему  [ 1 сообщение ] 
Вы не можете начинать темы
Вы не можете отвечать на сообщения
Вы не можете редактировать свои сообщения
Вы не можете удалять свои сообщения