Правила форума

  • В этом разделе создание новых тем Запрещено.
  • Для создания новых тем пользуйтесь Корневым разделом DVD и HD фильмы.
Начать новую темуОтветить на тему  [ Сообщений: 5 ] 
Торрент файл
Размер: 8.07 GB • Зарегистрирован: 3 года 8 месяцев • Статус: Проверено
Скачан: 117 раз • Желающих скачать: 0 • Поблагодарили: 30 раз
 Раздают: 0  |  0 KB/s  ]   Качают: 0  |  0 KB/s  ] 
 Полного источника не было 2 года 3 месяца 
Сообщения
 Добавлено: 2013-03-05 19:05
Модератор релиз-группы
Аватара пользователя
Стаж: 7 лет 8 месяцев
Возраст: 29
Сообщений: 9789
Спасибок: 23730
Лайков: 103
Изображение

Похождения призрака
Promoción fantasma


Год выпуска: 2011
Страна: Испания
Жанр: фэнтези, комедия, приключения
Продолжительность: 01:28:19
Перевод: Профессиональный (многоголосый, закадровый)
Режиссер: Хавьер Руис
Сценарий: Кристобал Гарридо, Адольфо Валор
Продюсер: Фернандо Бовайра, Симон Де Сантьяго, Сандра Эрмида, Энеко Лизарага, Эдмон Рош
Оператор: Арнау Вол Коломер
Композитор: Хавьер Роберо
В ролях: Рауль Аревало, Александра Хименес, Хавьер Гонзалез, Анна Кастилло, Андреа Дуро, Аура Гарридо, Алекс Маруни, Хайме Олиас, Карлос Аресес, Сильвия Абрил, Луис Варела, Хоакин Рейес

Мировая премьера: 3 февраля 2012
Описание: Обладающий паранормальными способностями заурядный учитель Модесто может видеть мертвых людей. Это не принесло ему никаких успехов в жизни, скорее наоборот, из-за этого его каждый раз увольняют с работы.
Однажды ему таки улыбается удача, и он устраивается работать в очень престижную элитную школу. Там его задачей становится обеспечить успешное окончание школы пяти трудным ученикам. Проблема лишь в том, что все они уже двадцать лет как мертвы, погибнув при охватившем школу пожаре. Для измученной пятеркой призраков директрисы школы единственной надеждой на долгожданное избавление от них становится неудачник Модесто.


Изображение User Rating: 6.963 (1308)
Изображение User Rating: 5.90 (730)
Раздача группы: Изображение
Качество: BDRip, 1080p
Формат: MKV
Видео: AVC; 1920x806 (2.35:1); 11120 Kbps; 23,976 fps; 0,300 bit/pixel
Аудио №1: русский; AC3; 192 Kbps; CBR; 2 ch
Аудио №2: Spanish; DTS; 1510 Kbps; CBR; 6 ch; 16 bit

mediainfo
Общее
Уникальный идентификатор : 252951239028577736823602204531482546497 (0xBE4CA2F6598A40DF8D68381CDCA1D141)
Полное имя : D:\TORRENT\Pohozhdenija.prizraka.2012.BDRip.mkv
Формат : Matroska
Размер файла : 8,07 Гбайт
Продолжительность : 1 ч. 28 м.
Общий поток : 13,1 Мбит/сек
Дата кодирования : UTC 2013-03-02 13:38:32
Программа кодирования : mkvmerge v6.0.0 ('Coming Up For Air') built on Jan 20 2013 09:52:00
Библиотека кодирования : libebml v1.3.0 + libmatroska v1.4.0

Видео
Идентификатор : 1
Формат : AVC
Формат/Информация : Advanced Video Codec
Профиль формата : High@L4.1
Параметр CABAC формата : Да
Параметр ReFrames формата : 5 кадров
Параметры GOP формата : M=1, N=4
Идентификатор кодека : V_MPEG4/ISO/AVC
Продолжительность : 1 ч. 28 м.
Битрейт : 11,4 Мбит/сек
Ширина : 1920 пикс.
Высота : 806 пикс.
Соотношение сторон : 2,35:1
Частота кадров : 23,976 кадр/сек
Цветовое пространство : YUV
Подвыборка цветности : 4:2:0
Битовая глубина : 8 бит
Тип развёртки : Прогрессивная
Бит/(Пиксели*Кадры) : 0.307
Размер потока : 6,86 Гбайт (85%)
Библиотека кодирования : x264 core 125 r2200 999b753
Настройки программы : cabac=1 / ref=5 / deblock=1:-3:-3 / analyse=0x3:0x133 / me=umh / subme=11 / psy=1 / psy_rd=1.05:0.10 / mixed_ref=1 / me_range=32 / chroma_me=1 / trellis=2 / 8x8dct=1 / cqm=0 / deadzone=21,11 / fast_pskip=0 / chroma_qp_offset=-3 / threads=12 / lookahead_threads=2 / sliced_threads=0 / nr=0 / decimate=1 / interlaced=0 / bluray_compat=0 / constrained_intra=0 / bframes=8 / b_pyramid=2 / b_adapt=2 / b_bias=0 / direct=3 / weightb=1 / open_gop=0 / weightp=2 / keyint=250 / keyint_min=23 / scenecut=40 / intra_refresh=0 / rc_lookahead=60 / rc=2pass / mbtree=1 / bitrate=11379 / ratetol=1.0 / qcomp=0.60 / qpmin=0 / qpmax=69 / qpstep=4 / cplxblur=20.0 / qblur=0.5 / vbv_maxrate=40000 / vbv_bufsize=30000 / nal_hrd=none / ip_ratio=1.40 / aq=1:0.90
Язык : English

Аудио #1
Идентификатор : 2
Формат : AC-3
Формат/Информация : Audio Coding 3
Расширение режима : CM (complete main)
Идентификатор кодека : A_AC3
Продолжительность : 1 ч. 28 м.
Вид битрейта : Постоянный
Битрейт : 192 Кбит/сек
Каналы : 2 канала
Расположение каналов : Front: L R
Частота : 48,0 КГц
Битовая глубина : 16 бит
Метод сжатия : С потерями
Размер потока : 121 Мбайт (1%)
Язык : Russian

Аудио #2
Идентификатор : 3
Формат : DTS
Формат/Информация : Digital Theater Systems
Идентификатор кодека : A_DTS
Продолжительность : 1 ч. 28 м.
Вид битрейта : Постоянный
Битрейт : 1510 Кбит/сек
Каналы : 6 каналов
Расположение каналов : Front: L C R, Side: L R, LFE
Частота : 48,0 КГц
Битовая глубина : 16 бит
Метод сжатия : С потерями
Размер потока : 954 Мбайт (12%)
Язык : Spanish


Свернуть
Скриншоты

Изображение
Изображение
Изображение
Изображение
Изображение
Изображение
Изображение
Изображение
Изображение
Свернуть
Не в сети
Профиль  
 Добавлено: 2013-03-05 21:08 (спустя 2 часа 3 минуты)
Стаж: 5 лет
Сообщений: 55
Лайков: 5
Сюжетец нехило закрутили! :co_ol:
Не в сети
Профиль  
 Добавлено: 2013-03-06 12:45 (спустя 15 часов)
Стаж: 5 лет 3 месяца
Сообщений: 150
Лайков: 1
Легкий и весёлый фильмец)Посмотрел и не пожалел об этом)
Не в сети
Профиль  
 Добавлено: 2013-03-06 23:04 (спустя 10 часов)
Аватара пользователя
Стаж: 6 лет 8 месяцев
Сообщений: 922
фильм хороший, добрый))) стоит посмотреть))
Не в сети
Профиль  
 Добавлено: 2013-03-19 21:21 (спустя 12 дней)
Стаж: 8 лет 6 месяцев
Сообщений: 264
Спасибок: 515
Лайков: 14
Спасибо за короткие, но емкие комменты! Обычно они, как подсказывает опыт, соответствуют действительности. Качаю.


Тема поднималась пользователем volkov2009 2013-03-19 21:21.
Не в сети
Профиль  
Начать новую темуОтветить на тему  [ Сообщений: 5 ] 
Вы не можете начинать темы
Вы не можете отвечать на сообщения
Вы не можете редактировать свои сообщения
Вы не можете удалять свои сообщения