Правила форума

  • В этом разделе создание новых тем Запрещено.
  • Для создания новых тем пользуйтесь Корневым разделом DVD и HD фильмы.
Начать новую темуОтветить на тему  [ Сообщений: 2 ] 
Торрент файл
Размер: 17.82 GB • Зарегистрирован: 3 года 8 месяцев • Статус: Проверено
Скачан: 30 раз • Желающих скачать: 0 • Поблагодарили: 14 раз
 Раздают: 0  |  0 KB/s  ]   Качают: 0  |  0 KB/s  ] 
 Полного источника не было 2 года 5 месяцев 
Сообщения
 Добавлено: 2013-03-21 11:58
Модератор релиз-группы
Аватара пользователя
Стаж: 7 лет 8 месяцев
Возраст: 29
Сообщений: 9789
Спасибок: 23730
Лайков: 103
Изображение

Похождения призрака
Promocion fantasma


Год выпуска: 2011
Страна: Испания
Жанр: фэнтези, комедия, приключения
Продолжительность: 01:28:19
Перевод: Профессиональный (многоголосый, закадровый)
Режиссер: Хавьер Руис
Сценарий: Кристобал Гарридо, Адольфо Валор
Продюсер: Фернандо Бовайра, Симон Де Сантьяго, Сандра Эрмида, Энеко Лизарага, Эдмон Рош
Оператор: Арнау Вол Коломер
Композитор: Хавьер Роберо
В ролях: Рауль Аревало, Александра Хименес, Хавьер Гонзалез, Анна Кастилло, Андреа Дуро, Аура Гарридо, Алекс Маруни, Хайме Олиас, Карлос Аресес, Сильвия Абрил, Луис Варела, Хоакин Рейес

Мировая премьера: 3 февраля 2012
Описание: Обладающий паранормальными способностями заурядный учитель Модесто может видеть мертвых людей. Это не принесло ему никаких успехов в жизни, скорее наоборот, из-за этого его каждый раз увольняют с работы.
Однажды ему таки улыбается удача, и он устраивается работать в очень престижную элитную школу. Там его задачей становится обеспечить успешное окончание школы пяти трудным ученикам. Проблема лишь в том, что все они уже двадцать лет как мертвы, погибнув при охватившем школу пожаре. Для измученной пятеркой призраков директрисы школы единственной надеждой на долгожданное избавление от них становится неудачник Модесто.


Изображение User Rating: 6.939 (1418)
Изображение User Rating: 5.90 (730)
Раздача группы: Изображение
Релиз группы: Изображение
Качество: BD-Remux, 1080p
Формат: MKV
Видео: AVC; 1920x1080 (16:9); 23,976 fps
Аудио №1: русский; AC3; 192 Kbps; CBR; 2 ch
Аудио №2: Spanish; DTS-HD; VBR; 6 ch; 16 bit

Субтитры:
mediainfo
Общее
Уникальный идентификатор : 224106787531249422910242515429999625728 (0xA89965B472FE1F5587ED16073BE5C600)
Полное имя : D:\TORRENT\Ghost.Graduation.2012.1080P.Blu-rayRemux.HDTracker.mkv
Формат : Matroska
Размер файла : 17,8 Гбайт
Продолжительность : 1 ч. 28 м.
Общий поток : 28,9 Мбит/сек
Название фильма : PiratCa - HDtracker
Дата кодирования : UTC 2013-03-02 10:18:04
Программа кодирования : mkvmerge v6.0.0 ('Coming Up For Air') built on Jan 20 2013 09:52:00
Библиотека кодирования : libebml v1.3.0 + libmatroska v1.4.0

Видео
Идентификатор : 1
Формат : AVC
Формат/Информация : Advanced Video Codec
Профиль формата : High@L4.1
Параметр CABAC формата : Да
Параметр ReFrames формата : 2 кадра
Идентификатор кодека : V_MPEG4/ISO/AVC
Продолжительность : 1 ч. 28 м.
Вид битрейта : Переменный
Битрейт : 26,4 Мбит/сек
Ширина : 1920 пикс.
Высота : 1080 пикс.
Соотношение сторон : 16:9
Частота кадров : 23,976 кадр/сек
Цветовое пространство : YUV
Подвыборка цветности : 4:2:0
Битовая глубина : 8 бит
Тип развёртки : Прогрессивная
Бит/(Пиксели*Кадры) : 0.532
Размер потока : 16,3 Гбайт (91%)
Язык : Spanish

Аудио #1
Идентификатор : 2
Формат : AC-3
Формат/Информация : Audio Coding 3
Расширение режима : CM (complete main)
Идентификатор кодека : A_AC3
Продолжительность : 1 ч. 28 м.
Вид битрейта : Постоянный
Битрейт : 192 Кбит/сек
Каналы : 2 канала
Расположение каналов : Front: L R
Частота : 48,0 КГц
Битовая глубина : 16 бит
Метод сжатия : С потерями
Размер потока : 121 Мбайт (1%)
Заголовок : mvo - "tnt"
Язык : Russian

Аудио #2
Идентификатор : 3
Формат : DTS
Формат/Информация : Digital Theater Systems
Профиль формата : MA / Core
Идентификатор кодека : A_DTS
Продолжительность : 1 ч. 28 м.
Вид битрейта : Переменный
Битрейт : 1690 Кбит/сек / 1510 Кбит/сек
Каналы : 6 каналов
Расположение каналов : Front: L C R, Side: L R, LFE
Частота : 48,0 КГц
Битовая глубина : 16 бит
Метод сжатия : Без потерь / Lossy
Заголовок : Original
Язык : Spanish

Текст
Идентификатор : 4
Формат : PGS
Режим смешивания : zlib
Идентификатор кодека : S_HDMV/PGS
Идентификатор кодека/Информация : The same subtitle format used on BDs/HD-DVDs

Меню
00:00:00.000 : en:00:00:00.000
00:09:00.874 : en:00:09:00.874
00:17:40.559 : en:00:17:40.559
00:28:25.078 : en:00:28:25.078
00:38:45.740 : en:00:38:45.740
00:46:50.433 : en:00:46:50.433
00:53:50.477 : en:00:53:50.477
01:03:46.322 : en:01:03:46.322
01:15:37.533 : en:01:15:37.533
01:23:39.014 : en:01:23:39.014

Свернуть
Скриншоты

Изображение
Изображение
Изображение
Изображение
Изображение
Изображение
Изображение
Изображение
Изображение
Свернуть
Не в сети
Профиль  
 Добавлено: 2013-11-24 16:36 (спустя 8 месяцев)
Стаж: 6 лет 8 месяцев
Сообщений: 33
Спасибок: 3
Не ожидал, что испанский фильм окажется таким интересным!
Не в сети
Профиль  
Начать новую темуОтветить на тему  [ Сообщений: 2 ] 
Вы не можете начинать темы
Вы не можете отвечать на сообщения
Вы не можете редактировать свои сообщения
Вы не можете удалять свои сообщения