Правила форума

  • В этом разделе создание новых тем Запрещено.
  • Для создания новых тем пользуйтесь Корневым разделом DVD и HD фильмы.
Начать новую темуОтветить на тему  [ 1 сообщение ] 
Торрент файл
Размер: 4.91 GB • Зарегистрирован: 4 года 6 месяцев • Статус: Проверено
Скачан: 20 раз • Желающих скачать: 0 • Поблагодарили: 5 раз
 Раздают: 0  |  0 KB/s  ]   Качают: 0  |  0 KB/s  ] 
 Полного источника не было 3 года 2 месяца 
Сообщения
 Добавлено: 2012-05-10 22:04
Руководитель релиз-группы
Аватара пользователя
Стаж: 7 лет 4 месяца
Возраст: 31
Сообщений: 3407
Спасибок: 46728
Лайков: 5
Изображение

Пожиратели
Intruders


Год выпуска: 2011
Страна: США, Великобритания, Испания
Слоган: «The Nightmare is Real.»
Жанр: ужасы, триллер
Продолжительность: 01:39:58
Перевод: Профессиональный (полное дублирование) Лицензия
Режиссер: Хуан Карлос Фреснадильо
Сценарий: Николас Касарьего, Хайми Маркес
Продюсер: Белен Атьенца, Мерседес Гамеро, Энрике Лопез Лавин
Оператор: Энрике Шедьяк
Композитор: Роке Баньос
В ролях: Клайв Оуэн, Кэрис Ван Хаутен, Даниэль Брюль, Керри Фокс, Элла Пурнелла, Лолита Чакрабарти, Пилар Лопес де Айяла, Марк Уингетт, Эктор Альтерио, Адам Лиз
Бюджет: $13 000 000
Описание: В Мадриде 8-летний мальчик Хуан рассказывает родителям жуткие истории. Его мать, Луиза, предполагает, что богатое воображение отрока, подпитанное яркими и реалистичными ночными кошмарами являются основной причиной нарушения сна и психического надлома ребенка. Однако Хуан продолжает настаивать на том, что жуткие существа вовсе не плод его больного воображения.
В то же самое время в Лондоне 11-летняя Миа рассказывает сверстниками устрашающие истории об инфернальном чудовище, которое ищет контакта с миром людей через комнату маленького мальчика где-то в материковой части Европы.

Изображение
MPAA: Изображение
Мировая премьера: 12 сентября 2011
Релиз на DVD: 10 мая 2012, «Двадцатый Век Фокс СНГ»
Релиз: Изображение Раздача группы: Изображение
Качество: BDRip, 720p
Формат: MKV
Видео: AVC; 1280x544 (2.35:1); 4625 Kbps; 23,976 fps; 0,277 bit/pixel
Аудио №1: DTS; 754 Kbps; CBR; 6 ch; 16 bit Russian
Аудио №2: DTS; 1509 Kbps; CBR; 6 ch; 24 bit English
Изображение
mediainfo
Формат : Matroska
Версия формата : Version 2
Размер файла : 4,91 Гбайт
Продолжительность : 1 ч. 39 м.
Общий поток : 7029 Кбит/сек
Название фильма : -=R.G.Bee-Media=-
Дата кодирования : UTC 2012-05-09 18:38:40
Программа кодирования : mkvmerge v2.9.9 ('Tutu') built on Nov 25 2009 21:13:32
Библиотека кодирования : libebml v0.7.9 + libmatroska v0.8.1

Видео
Идентификатор : 1
Формат : AVC
Формат/Информация : Advanced Video Codec
Профиль формата : High@L4.1
Параметр CABAC формата : Да
Параметр ReFrames формата : 5 кадров
Идентификатор кодека : V_MPEG4/ISO/AVC
Продолжительность : 1 ч. 39 м.
Битрейт : 4750 Кбит/сек
Ширина : 1280 пикселей
Высота : 544 пикселя
Соотношение сторон : 2,35:1
Частота кадров : 23,976 кадра/сек
Цветовое пространство : YUV
Субдискретизация насыщенности : 4:2:0
Битовая глубина : 8 бит
Тип развёртки : Прогрессивная
Бит/(Пиксели*Кадры) : 0.285
Размер потока : 3,23 Гбайт (66%)
Библиотека кодирования : x264 core 124 r2197 69a0443
Настройки программы : cabac=1 / ref=5 / deblock=1:0:0 / analyse=0x3:0x133 / me=umh / subme=7 / psy=1 / psy_rd=1.00:0.00 / mixed_ref=1 / me_range=16 / chroma_me=1 / trellis=1 / 8x8dct=1 / cqm=0 / deadzone=21,11 / fast_pskip=0 / chroma_qp_offset=-2 / threads=12 / sliced_threads=0 / nr=0 / decimate=1 / interlaced=0 / bluray_compat=0 / constrained_intra=0 / bframes=3 / b_pyramid=2 / b_adapt=1 / b_bias=0 / direct=1 / weightb=1 / open_gop=0 / weightp=2 / keyint=250 / keyint_min=23 / scenecut=40 / intra_refresh=0 / rc_lookahead=40 / rc=2pass / mbtree=1 / bitrate=4750 / ratetol=1.0 / qcomp=0.60 / qpmin=0 / qpmax=69 / qpstep=4 / cplxblur=20.0 / qblur=0.5 / ip_ratio=1.40 / aq=1:1.00
Язык : English

Аудио #1
Идентификатор : 2
Формат : DTS
Формат/Информация : Digital Theater Systems
Идентификатор кодека : A_DTS
Продолжительность : 1 ч. 39 м.
Вид битрейта : Постоянный
Битрейт : 755 Кбит/сек
Каналы : 6 каналов
Расположение каналов : Front: L C R, Side: L R, LFE
Частота : 48,0 КГц
Битовая глубина : 16 бит
Метод сжатия : С потерями
Размер потока : 540 Мбайт (11%)
Заголовок : DR5
Язык : Russian

Аудио #2
Идентификатор : 3
Формат : DTS
Формат/Информация : Digital Theater Systems
Идентификатор кодека : A_DTS
Продолжительность : 1 ч. 39 м.
Вид битрейта : Постоянный
Битрейт : 1510 Кбит/сек
Каналы : 6 каналов
Расположение каналов : Front: L C R, Side: L R, LFE
Частота : 48,0 КГц
Битовая глубина : 24 бит
Метод сжатия : С потерями
Задержка видео : 11 мс.
Размер потока : 1,05 Гбайт (21%)
Язык : English

Текст
Идентификатор : 4
Формат : UTF-8
Идентификатор кодека : S_TEXT/UTF8
Идентификатор кодека/Информация : UTF-8 Plain Text
Язык : English

Меню
00:00:00.000 : en:00:00:00.000
00:08:09.656 : en:00:08:09.656
00:15:37.645 : en:00:15:37.645
00:23:58.228 : en:00:23:58.228
00:33:49.402 : en:00:33:49.402
00:44:55.985 : en:00:44:55.985
00:50:50.714 : en:00:50:50.714
00:58:30.507 : en:00:58:30.507
01:06:43.291 : en:01:06:43.291
01:16:32.004 : en:01:16:32.004
01:21:19.708 : en:01:21:19.708
01:34:34.294 : en:01:34:34.294

Свернуть
Скриншоты

Изображение
Изображение
Изображение
Изображение
Изображение
Свернуть
Не в сети
Профиль  
Начать новую темуОтветить на тему  [ 1 сообщение ] 
Вы не можете начинать темы
Вы не можете отвечать на сообщения
Вы не можете редактировать свои сообщения
Вы не можете удалять свои сообщения