Правила форума

  • В этом разделе создание новых тем Запрещено.
  • Для создания новых тем пользуйтесь Корневым разделом DVD и HD фильмы.
Начать новую темуОтветить на тему  [ 1 сообщение ] 
Торрент файл
Размер: 3.72 GB • Зарегистрирован: 4 года 6 месяцев • Статус: T Временный релиз
Скачан: 21 раз • Желающих скачать: 0 • Поблагодарили: 4 раза
 Раздают: 0  |  0 KB/s  ]   Качают: 0  |  0 KB/s  ] 
 Полного источника не было 3 года 2 месяца 
Сообщения
 Добавлено: 2012-05-09 13:31
Книголюб
Аватара пользователя
Стаж: 7 лет 2 месяца
Сообщений: 2823
Спасибок: 48825
Лайков: 73
Пожиратели
Intruders

Изображение


Год выпуска: 2011
Страна: США, Великобритания, Испания
Слоган: «The Nightmare is Real.»
Жанр: ужасы, триллер
Продолжительность: 01:40:00
Перевод: Любительский (двухголосый закадровый)

Режиссёр: Хуан Карлос Фреснадильо
В ролях: Клайв Оуэн, Кэрис Ван Хаутен, Даниэль Брюль, Элла Пурнелла, Керри Фокс, Пилар Лопес де Айяла, Лолита Чакрабарти, Марк Уингетт, Имоджен Грэй
Описание: В Мадриде 8-летний мальчик Хуан рассказывает родителям жуткие истории. Его мать, Луиза, предполагает, что богатое воображение отрока, подпитанное яркими и реалистичными ночными кошмарами являются основной причиной нарушения сна и психического надлома ребенка. Однако Хуан продолжает настаивать на том, что жуткие существа вовсе не плод его больного воображения.

В то же самое время в Лондоне 11-летняя Миа рассказывает сверстниками устрашающие истории об инфернальном чудовище, которое ищет контакта с миром людей через комнату маленького мальчика где-то в материковой части Европы…
Рейтинг MPAA: Рейтинг R (Подростки до 17 лет допускаются на фильм только в сопровождении одного из родителей)
Мировая премьера: 12 сентября 2011
Изображение 5.458 370

Качество: BDRip720
Формат: MKV
Видео кодек: H264
Аудио кодек: AC3 (Dolby Digital)
Видео: 4750 kb/s, 1280x544 23.976fps 0.285Bits/Pixel
Аудио #1: 48000Hz stereo Russian
Аудио #2: 48000Hz 6ch English
MediaInfo
General
Unique ID : 231185319339496908327089120467757118881 (0xADECAC449B805E369D0CFD83371D35A1)
Complete name : K:\Torrent1\Intruders .mkv
Format : Matroska
Format version : Version 2
File size : 3.72 GiB
Duration : 1h 39mn
Overall bit rate : 5 327 Kbps
Encoded date : UTC 2012-05-06 08:51:12
Writing application : mkvmerge v5.5.0 ('Healer') built on Apr 6 2012 21:43:24
Writing library : libebml v1.2.3 + libmatroska v1.3.0

Video
ID : 1
Format : AVC
Format/Info : Advanced Video Codec
Format profile : High@L4.1
Format settings, CABAC : Yes
Format settings, ReFrames : 5 frames
Codec ID : V_MPEG4/ISO/AVC
Duration : 1h 39mn
Bit rate : 4 750 Kbps
Width : 1 280 pixels
Height : 544 pixels
Display aspect ratio : 2.35:1
Frame rate : 23.976 fps
Color space : YUV
Chroma subsampling : 4:2:0
Bit depth : 8 bits
Scan type : Progressive
Bits/(Pixel*Frame) : 0.285
Stream size : 3.24 GiB (87%)
Writing library : x264 core 124 r2197 69a0443
Encoding settings : cabac=1 / ref=5 / deblock=1:0:0 / analyse=0x3:0x133 / me=umh / subme=7 / psy=1 / psy_rd=1.00:0.00 / mixed_ref=1 / me_range=16 / chroma_me=1 / trellis=1 / 8x8dct=1 / cqm=0 / deadzone=21,11 / fast_pskip=0 / chroma_qp_offset=-2 / threads=12 / sliced_threads=0 / nr=0 / decimate=1 / interlaced=0 / bluray_compat=0 / constrained_intra=0 / bframes=3 / b_pyramid=2 / b_adapt=1 / b_bias=0 / direct=1 / weightb=1 / open_gop=0 / weightp=2 / keyint=250 / keyint_min=23 / scenecut=40 / intra_refresh=0 / rc_lookahead=40 / rc=2pass / mbtree=1 / bitrate=4750 / ratetol=1.0 / qcomp=0.60 / qpmin=0 / qpmax=69 / qpstep=4 / cplxblur=20.0 / qblur=0.5 / ip_ratio=1.40 / aq=1:1.00
Language : English
Default : No
Forced : No

Audio #1
ID : 2
Format : AC-3
Format/Info : Audio Coding 3
Format profile : Dolby Digital
Mode extension : CM (complete main)
Codec ID : A_AC3
Duration : 1h 39mn
Bit rate mode : Constant
Bit rate : 192 Kbps
Channel(s) : 2 channels
Channel positions : Front: L R
Sampling rate : 48.0 KHz
Bit depth : 16 bits
Compression mode : Lossy
Stream size : 137 MiB (4%)
Language : Russian
Default : Yes
Forced : No

Audio #2
ID : 3
Format : AC-3
Format/Info : Audio Coding 3
Mode extension : CM (complete main)
Codec ID : A_AC3
Duration : 1h 39mn
Bit rate mode : Constant
Bit rate : 384 Kbps
Channel(s) : 6 channels
Channel positions : Front: L C R, Side: L R, LFE
Sampling rate : 48.0 KHz
Bit depth : 16 bits
Compression mode : Lossy
Stream size : 275 MiB (7%)
Language : English
Default : No
Forced : No

Text
ID : 4
Format : UTF-8
Codec ID : S_TEXT/UTF8
Codec ID/Info : UTF-8 Plain Text
Language : English
Default : No
Forced : No


Свернуть

Скриншоты
Изображение
Изображение
Изображение
Свернуть
Не в сети
Профиль  
Начать новую темуОтветить на тему  [ 1 сообщение ] 
Вы не можете начинать темы
Вы не можете отвечать на сообщения
Вы не можете редактировать свои сообщения
Вы не можете удалять свои сообщения