Правила форума

  • В этом разделе создание новых тем Запрещено.
  • Для создания новых тем пользуйтесь Корневым разделом DVD и HD фильмы.
Начать новую темуОтветить на тему  [ Сообщений: 2 ] 
Торрент файл
Размер: 10.03 GB • Зарегистрирован: 4 года 6 месяцев • Статус: Проверено
Скачан: 71 раз • Желающих скачать: 0 • Поблагодарили: 11 раз
 Раздают: 0  |  0 KB/s  ]   Качают: 0  |  0 KB/s  ] 
 Полного источника не было 2 года 6 месяцев 
Сообщения
 Добавлено: 2012-05-10 19:17
Аватара пользователя
Стаж: 5 лет 9 месяцев
Сообщений: 616
Спасибок: 12070
Лайков: 19
Пожиратели

Intruders

Изображение

Год выпуска: 2011
Страна: США, Великобритания, Испания
Жанр: ужасы, триллер
Продолжительность: 01:39:58
Перевод: Дублированное [лицензия]
Режиссёр: Хуан Карлос Фреснадильо
В ролях: Клайв Оуэн, Кэрис Ван Хаутен, Даниэль Брюль, Керри Фокс, Элла Пурнелла, Лолита Чакрабарти, Пилар Лопес де Айяла, Марк Уингетт, Эктор Альтерио, Адам Лиз
О фильме:
В Мадриде 8-летний мальчик Хуан рассказывает родителям жуткие истории. Его мать, Луиза, предполагает, что богатое воображение отрока, подпитанное яркими и реалистичными ночными кошмарами являются основной причиной нарушения сна и психического надлома ребенка. Однако Хуан продолжает настаивать на том, что жуткие существа вовсе не плод его больного воображения. В то же самое время в Лондоне 11-летняя Миа рассказывает сверстниками устрашающие истории об инфернальном чудовище, которое ищет контакта с миром людей через комнату маленького мальчика где-то в материковой части Европы…
IMDB 5.3/10 (2,553 users)
Файл
Формат: MKV
Качество: BDRip 1080p [CHD]
Видео: 12092 kb/s, 1920x816
Аудио: Russian: DTS, 755 kb/s (6 ch) / English: DTS, 1510 kb/s (6 ch)
Субтитры: Russian, Russian [Forced], English, English (SDH)
Сэмпл
MediaInfo
General
Unique ID : 245531996721477350068012711782748043589 (0xB8B7BE131C5F9E029382FB48C978B945)
Complete name : E:\Фильмы\BDRip\Пожиратели\Pozhirateli.2011.D.BDRip.1080p.mkv
Format : Matroska
Format version : Version 2
File size : 10.0 GiB
Duration : 1h 39mn
Overall bit rate : 14.4 Mbps
Movie name : Pozhirateli.2011.D.BDRip.1080p.[uniongang.tv] by sstonecold
Encoded date : UTC 2012-05-10 10:45:34
Writing application : mkvmerge v5.2.0 ('I can't explain') built on Dec 18 2011 18:12:03
Writing library : libebml v1.2.3 + libmatroska v1.3.0

Video
ID : 1
Format : AVC
Format/Info : Advanced Video Codec
Format profile : High@L4.1
Format settings, CABAC : Yes
Format settings, ReFrames : 5 frames
Codec ID : V_MPEG4/ISO/AVC
Duration : 1h 39mn
Bit rate : 12.1 Mbps
Width : 1 920 pixels
Height : 816 pixels
Display aspect ratio : 2.35:1
Frame rate : 23.976 fps
Color space : YUV
Chroma subsampling : 4:2:0
Bit depth : 8 bits
Scan type : Progressive
Bits/(Pixel*Frame) : 0.322
Stream size : 8.25 GiB (82%)
Title : Pozhirateli.2011.D.BDRip.1080p.[uniongang.tv] by sstonecold
Writing library : x264 core 120 r2146 bcd41db
Encoding settings : cabac=1 / ref=5 / deblock=1:-3:-3 / analyse=0x3:0x113 / me=umh / subme=10 / psy=1 / psy_rd=1.00:0.05 / mixed_ref=1 / me_range=32 / chroma_me=1 / trellis=2 / 8x8dct=1 / cqm=0 / deadzone=21,11 / fast_pskip=0 / chroma_qp_offset=-2 / threads=8 / sliced_threads=0 / nr=0 / decimate=1 / interlaced=0 / bluray_compat=0 / constrained_intra=0 / bframes=6 / b_pyramid=2 / b_adapt=2 / b_bias=0 / direct=3 / weightb=1 / open_gop=0 / weightp=2 / keyint=250 / keyint_min=23 / scenecut=40 / intra_refresh=0 / rc=2pass / mbtree=0 / bitrate=12092 / ratetol=1.0 / qcomp=0.70 / qpmin=0 / qpmax=69 / qpstep=4 / cplxblur=20.0 / qblur=0.5 / ip_ratio=1.40 / pb_ratio=1.30 / aq=2:0.90
Language : English

Audio #1
ID : 2
Format : DTS
Format/Info : Digital Theater Systems
Codec ID : A_DTS
Duration : 1h 39mn
Bit rate mode : Constant
Bit rate : 755 Kbps
Channel(s) : 6 channels
Channel positions : Front: L C R, Side: L R, LFE
Sampling rate : 48.0 KHz
Bit depth : 16 bits
Compression mode : Lossy
Stream size : 540 MiB (5%)
Language : Russian

Audio #2
ID : 3
Format : DTS
Format/Info : Digital Theater Systems
Codec ID : A_DTS
Duration : 1h 39mn
Bit rate mode : Constant
Bit rate : 1 510 Kbps
Channel(s) : 6 channels
Channel positions : Front: L C R, Side: L R, LFE
Sampling rate : 48.0 KHz
Bit depth : 24 bits
Compression mode : Lossy
Stream size : 1.05 GiB (11%)
Title : DTS-CORE 1536K

Text #1
ID : 4
Format : UTF-8
Codec ID : S_TEXT/UTF8
Codec ID/Info : UTF-8 Plain Text
Title : Forced
Language : Russian

Text #2
ID : 5
Format : UTF-8
Codec ID : S_TEXT/UTF8
Codec ID/Info : UTF-8 Plain Text
Language : Russian

Text #3
ID : 6
Format : UTF-8
Codec ID : S_TEXT/UTF8
Codec ID/Info : UTF-8 Plain Text
Title : SDH
Language : English

Text #4
ID : 7
Format : UTF-8
Codec ID : S_TEXT/UTF8
Codec ID/Info : UTF-8 Plain Text
Language : English
Свернуть
Скриншоты
ИзображениеИзображениеИзображениеИзображение
Свернуть


Последний раз редактировалось Sweet guy 2012-05-10 20:22, всего редактировалось 3 раз(а).
Не в сети
Профиль  
 Добавлено: 2012-05-10 20:08 (спустя 51 минута)
Руководитель релиз-группы
Аватара пользователя
Стаж: 7 лет 4 месяца
Возраст: 31
Сообщений: 3407
Спасибок: 46729
Лайков: 5
Sweet guy
Внимание: Для DVD и HD-разделов необходимы развернутые технические данные:

Для HD: Отчет BDInfo→ (после нажатия кнопки «scan bitrates» и окончания сканирования) или MediaInfo→ ( весь текст из режима view (вид) → text (текст).) (под спойлером)

Для HD и HQRip-ов необходимы скриншоты в формате PNG, для остальных форматов PNG так же рекомендуется.
Исправьте пожалуйста :)
Как все исправите, то сообщите пожалуйста мне или любому модератору видео, обязательно со ссылкой на релиз
Не в сети
Профиль  
Начать новую темуОтветить на тему  [ Сообщений: 2 ] 
Вы не можете начинать темы
Вы не можете отвечать на сообщения
Вы не можете редактировать свои сообщения
Вы не можете удалять свои сообщения