Правила форума

  • В этом разделе создание новых тем Запрещено.
  • Для создания новых тем пользуйтесь Корневым разделом DVD и HD фильмы.
Начать новую темуОтветить на тему  [ Сообщений: 2 ] 
Торрент файл
Размер: 11.93 GB • Зарегистрирован: 3 года • Статус: Проверено
Скачан: 65 раз • Желающих скачать: 0 • Поблагодарили: 22 раза
 Раздают: 2  |  0 KB/s  ]   Качают: 0  |  0 KB/s  ] 
Сообщения
 Добавлено: 2013-11-20 21:27
Top-releaser
Аватара пользователя
Стаж: 8 лет 7 месяцев
Сообщений: 1286
Спасибок: 3420
Лайков: 7
Изображение
Пока не сыграл в ящик | The Bucket List


«Оторвись напоследок»


Год выпуска | 2007
Страна | США
Жанр | драма, комедия, приключения
Продолжительность | 01:37:04
Перевод | Профессиональный (полное дублирование)
Авторский (Гаврилов Андрей) Отдельно
Авторский (Немахов Юрий)
Оригинальный

Режиссер | Роб Райнер
Сценарий | Джастин Закэм
Продюсер | Алан Грейсман, Нил Мерон, Роб Райнер, Крэйг Зэдан, Фрэнк Капра III
Оператор | Джон Шварцман
Композитор | Марк Шэймен

В ролях | Джек Николсон, Морган Фриман, Шон Хейс, Беверли Тодд, Роб Морроу, Альфонсо Фриман, Роуэна Кинг, Эннтон Берри мл., Верда Бриджес, Дестини Браунридж, Брайан Коуплэнд, Йен Энтони Дэйл и др.
Дублёры | Алексей Колган, Дальвин Щербаков, Михаил Тихонов, Ирина Пономарева, Андрей Казанцев, Юрий Брежнев, Елена Ивасишина, Борис Токарев, Александр Гаврилин и др.
Описание | Именно так решили два больных раком соседа по больничной палате, когда услышали свой приговор. Один из них вспыльчивый миллиардер, а второй эрудированный автомеханик. Они составляют список дел, которые необходимо сделать прежде, чем они сыграют в ящик, и отправляются в кругосветное путешествие, путешествие всей своей жизни.
Прыжки с парашютом? Посмотрим. Гонки на раритетных автомобилях? Сделано. Посмотреть на пирамиды? Отлично. Открыть радость жизни прежде, чем станет слишком поздно? Точно!

Раздача | Изображение

kinopoisk.ru | 8.159 (72 118)
Бюджет | $45 000 000
Мировая премьера | 16 декабря 2007
Знаете ли Вы, что...
  • Роль сына персонажа Моргана Фримана играет его родной сын Альфонсо Фриман.
  • Джастин Закэм прописывал роль Картера специально для Моргана Фримана.
  • Специально для своих ролей Джэк Николсон и Морган Фриман подстриглись «под ноль».
  • Джастин Закэм написал сценарий всего за две недели.
  • С самого начала и режиссер Роб Райнер и актер Морган Фриман видели в роли Эдварда Коула только Джэка Николсона.
  • «Больничный» опыт Джэка Николсона послужил основой для написания некоторых диалогов и сцен фильма. К примеру, в сценарии не были упомянуты зеркальные очки. На съемки их принес сам Николсон, прихватив их из больницы, в которой он проходил лечение. Робу Райнеру понравилась идея добавить такую деталь в свой фильм.
  • В некоторые кинотеатры копии с фильмом доставлялись под фальшивым названием «Дороги в рай».
  • «Копи Лувак» (другое название - «Кофе виверры») в самом деле, самый дорогой кофе в мире. Его стоимость колеблется от $120 до $600. Его производство очень медленное, так как плоды кофе должны пройти через пищеварительную систему китайских диких котов виверр.
  • еще 5 фактов
  • В фильме, на 21:45 Фриман одевает очки, а в следующем кадре он уже без очков.
  • Герой Джека Николсона рвет список желаний, когда ругается с другом. А при их встрече тот же список, помятый и написанный разными ручками, снова цел.
Свернуть

Качество | BDRip 1080p
Контейнер | MKV
Видео | AVC, 1920x1080 (16:9), 15133 kbps, 23,976 fps, 0,304 bit/pixel
Аудио №1 | русский, AC3, 384 kbps, CBR, 6 channels, 16 bit
Аудио №2 | русский, AC3, 640 kbps, CBR, 6 channels, 16 bit
Аудио №3 | английский, AC3, 640 kbps, CBR, 6 channels, 16 bit

MediaInfo
General
Unique ID : 175591657087270743136074372996836815092 (0x8419B918F229CBEB89E1D819AED6F0F4)
Complete name : D:\Видео\The.Bucket.List.2007.BDRip.1080p.[R.G.KiNOvNiNO]\The.Bucket.List.2007.BDRip.1080p.2xRus.Eng.mkv
Format : Matroska
Format version : Version 2
File size : 11.6 GiB
Duration : 1h 37mn
Overall bit rate : 17.1 Mbps
Movie name : The Bucket List 2007
Encoded date : UTC 2012-10-03 12:40:35
Writing application : mkvmerge v5.8.0 ('No Sleep / Pillow') built on Sep 2 2012 15:37:04
Writing library : libebml v1.2.3 + libmatroska v1.3.0
Attachment : Yes

Video
ID : 1
Format : AVC
Format/Info : Advanced Video Codec
Format profile : High@L4.1
Format settings, CABAC : Yes
Format settings, ReFrames : 4 frames
Codec ID : V_MPEG4/ISO/AVC
Duration : 1h 37mn
Bit rate : 15.1 Mbps
Width : 1 920 pixels
Height : 1 080 pixels
Display aspect ratio : 16:9
Frame rate : 23.976 fps
Color space : YUV
Chroma subsampling : 4:2:0
Bit depth : 8 bits
Scan type : Progressive
Bits/(Pixel*Frame) : 0.304
Stream size : 10.3 GiB (88%)
Title : The Bucket List
Writing library : x264 core 128 r2216kMod 198a7ea
Encoding settings : cabac=1 / ref=4 / deblock=1:-3:-3 / analyse=0x3:0x133 / me=umh / subme=11 / psy=1 / fade_compensate=0.00 / psy_rd=1.00:0.00 / mixed_ref=1 / me_range=32 / chroma_me=1 / trellis=2 / 8x8dct=1 / cqm=0 / deadzone=21,11 / fast_pskip=0 / chroma_qp_offset=-2 / threads=6 / lookahead_threads=1 / sliced_threads=0 / nr=0 / decimate=1 / interlaced=0 / bluray_compat=0 / constrained_intra=0 / bframes=9 / b_pyramid=2 / b_adapt=2 / b_bias=0 / direct=3 / weightb=1 / open_gop=0 / weightp=2 / keyint=240 / keyint_min=23 / scenecut=40 / intra_refresh=0 / rc_lookahead=60 / rc=crf / mbtree=0 / crf=18.0000 / qcomp=0.70 / qpmin=0 / qpmax=69 / qpstep=4 / vbv_maxrate=50000 / vbv_bufsize=62500 / crf_max=0.0 / nal_hrd=none / ip_ratio=1.40 / pb_ratio=1.20 / aq=1:0.60
Language : English
Default : Yes
Forced : No
Matrix coefficients : BT.709-5, BT.1361, IEC 61966-2-4 709, SMPTE RP177

Audio #1
ID : 2
Format : AC-3
Format/Info : Audio Coding 3
Mode extension : CM (complete main)
Codec ID : A_AC3
Duration : 1h 37mn
Bit rate mode : Constant
Bit rate : 384 Kbps
Channel(s) : 6 channels
Channel positions : Front: L C R, Side: L R, LFE
Sampling rate : 48.0 KHz
Bit depth : 16 bits
Compression mode : Lossy
Stream size : 267 MiB (2%)
Title : Дубляж
Language : Russian
Default : Yes
Forced : No

Audio #2
ID : 3
Format : AC-3
Format/Info : Audio Coding 3
Mode extension : CM (complete main)
Codec ID : A_AC3
Duration : 1h 37mn
Bit rate mode : Constant
Bit rate : 640 Kbps
Channel(s) : 6 channels
Channel positions : Front: L C R, Side: L R, LFE
Sampling rate : 48.0 KHz
Bit depth : 16 bits
Compression mode : Lossy
Stream size : 444 MiB (4%)
Title : Ю.Немахов
Language : Russian
Default : No
Forced : No

Audio #3
ID : 4
Format : AC-3
Format/Info : Audio Coding 3
Mode extension : CM (complete main)
Codec ID : A_AC3
Duration : 1h 37mn
Bit rate mode : Constant
Bit rate : 640 Kbps
Channel(s) : 6 channels
Channel positions : Front: L C R, Side: L R, LFE
Sampling rate : 48.0 KHz
Bit depth : 16 bits
Compression mode : Lossy
Stream size : 444 MiB (4%)
Title : Английский
Language : English
Default : No
Forced : No

Text #1
ID : 5
Format : UTF-8
Codec ID : S_TEXT/UTF8
Codec ID/Info : UTF-8 Plain Text
Title : Русские
Language : Russian
Default : No
Forced : No

Text #2
ID : 6
Format : ASS
Codec ID : S_TEXT/ASS
Codec ID/Info : Advanced Sub Station Alpha
Compression mode : Lossless
Title : Русские - Colored
Language : Russian
Default : No
Forced : No

Text #3
ID : 7
Format : UTF-8
Codec ID : S_TEXT/UTF8
Codec ID/Info : UTF-8 Plain Text
Title : Украинские
Language : Ukrainian
Default : No
Forced : No

Text #4
ID : 8
Format : UTF-8
Codec ID : S_TEXT/UTF8
Codec ID/Info : UTF-8 Plain Text
Title : Английские
Language : English
Default : No
Forced : No

Text #5
ID : 9
Format : UTF-8
Codec ID : S_TEXT/UTF8
Codec ID/Info : UTF-8 Plain Text
Title : Английские - SDH
Language : English
Default : No
Forced : No

Menu
00:00:00.000 : en:1. About Edward
00:01:30.090 : en:2. Two Ailing Men
00:06:09.703 : en:3. Roommates
00:12:38.424 : en:4. Coffee Origins
00:17:06.359 : en:5. Life Choices
00:23:10.723 : en:6. Getting Familiar
00:29:30.936 : en:7. Bucket List
00:35:30.128 : en:8. Time for Myself
00:38:45.490 : en:9. Skydiving
00:42:03.688 : en:10. Need for Speed
00:45:58.756 : en:11. In-Flight Faith
00:49:39.476 : en:12. Little Accident
00:53:04.681 : en:13. Lost Along the Way
00:57:50.133 : en:14. Two Questions
01:03:42.652 : en:15. Ashes in a Can
01:06:43.666 : en:16. Carter's Mountain
01:09:18.988 : en:17. Temptation
01:14:11.113 : en:18. I'm Not Everyone
01:16:35.925 : en:19. Homecomings
01:20:54.349 : en:20. Word with the Owner
01:23:23.665 : en:21. Cats Beat Me to It
01:26:55.710 : en:22. Find the Joy
01:32:21.536 : en:23. End Credits
Свернуть

Скриншоты

Изображение

Изображение

Изображение

Изображение

Изображение

Изображение

Изображение

Изображение

Свернуть
Не в сети
Профиль  
 Добавлено: 2015-07-29 21:28 (спустя 1 год 8 месяцев)
Стаж: 8 лет
Сообщений: 22
Спасибок: 1
раздайте плз :ny_tik:


Тема поднималась пользователем Shamman 2015-07-29 21:28.
Не в сети
Профиль  
Начать новую темуОтветить на тему  [ Сообщений: 2 ] 
Вы не можете начинать темы
Вы не можете отвечать на сообщения
Вы не можете редактировать свои сообщения
Вы не можете удалять свои сообщения