Правила форума

  • В этом разделе создание новых тем Запрещено.
  • Для создания новых тем пользуйтесь Корневым разделом DVD и HD фильмы.
Начать новую темуОтветить на тему  [ Сообщений: 3 ] 
Торрент файл
Размер: 5.82 GB • Зарегистрирован: 3 года 9 месяцев • Статус: Проверено
Скачан: 97 раз • Желающих скачать: 0 • Поблагодарили: 32 раза
 Раздают: 0  |  0 KB/s  ]   Качают: 0  |  0 KB/s  ] 
 Полного источника не было 1 год 1 месяц 
Сообщения
 Добавлено: 2013-02-13 05:32
DVD Release Group
Аватара пользователя
Стаж: 7 лет 1 месяц
Сообщений: 3542
Спасибок: 246745
Лайков: 1016
Покорители волн

Chasing Mavericks

«Самые опасные волны на планете изменят их навсегда»


Изображение


Год выпуска: 2012
Страна: США
Жанр: Драма, спорт
Продолжительность: 01:56:50
Перевод: Профессиональный (полное дублирование)
Субтитры: Русские, английские
Режиссер: Майкл Эптед, Кёртис Хэнсон
В ролях: Джерард Батлер, Джонни Уэстон, Элизабет Шу, Эбигейл Спенсер, Ливэн Рамбин, Грег Лонг, Питер Мэл, Зэк Уормхудт, Девин Криттенден, Тейлор Хэндли
Описание: Серфинг — спорт королей. Не каждый сможет справиться с огромными волнами у побережья Калифорнии. Их называют Мавериксами, они достигают 25 метров в высоту. Хессон не раз покорял стихию, но не раскрыл своего секрета никому. Он дал обещание любимой женщине — больше не рисковать жизнью. Но смелость юного Джей подкупила Хессона. Смогут ли они, глядя смерти в лицо, удержаться на гребне волны?
Изображение
Sample:
http://multi-up.com/832485/
Дополнительно: Сохранены оригинальные чаптеры
Качество: BDRip 720p
Формат: MKV
Видео кодек: H.264
Аудио кодек: AC3, DTS
Видео: 1280x696 23.98fps 5199kbps 0.243bit/pixel
Аудио:
Аудио Rus: AC3 48kHz 6ch 640kbps
Аудио Eng: DTS 48kHz 6ch 1510kbps
"MediaInfo"
Формат : Matroska
Версия формата : Version 2
Размер файла : 5,82 Гбайт
Продолжительность : 1 ч. 56 м.
Общий поток : 7158 Кбит/сек
Дата кодирования : UTC 2013-02-17 18:54:28
Программа кодирования : mkvmerge v5.2.0 ('I can't explain') built on Dec 18 2011 18:12:03
Библиотека кодирования : libebml v1.2.3 + libmatroska v1.3.0

Видео
Идентификатор : 1
Формат : AVC
Формат/Информация : Advanced Video Codec
Профиль формата : High@L4.1
Параметр CABAC формата : Да
Параметр ReFrames формата : 5 кадров
Идентификатор кодека : V_MPEG4/ISO/AVC
Продолжительность : 1 ч. 56 м.
Битрейт : 5199 Кбит/сек
Ширина : 1280 пикселей
Высота : 696 пикселей
Соотношение сторон : 16:9
Частота кадров : 23,976 кадра/сек
Цветовое пространство : YUV
Субдискретизация насыщенности : 4:2:0
Битовая глубина : 8 бит
Тип развёртки : Прогрессивная
Бит/(Пиксели*Кадры) : 0.243
Размер потока : 4,12 Гбайт (71%)
Заголовок : Chasing.Mavericks.2012.720p.BluRay.x264-SPARKS
Библиотека кодирования : x264 core 129 r2245 bc13772
Настройки программы : cabac=1 / ref=5 / deblock=1:0:0 / analyse=0x3:0x133 / me=umh / subme=7 / psy=1 / psy_rd=1.00:0.00 / mixed_ref=1 / me_range=16 / chroma_me=1 / trellis=1 / 8x8dct=1 / cqm=0 / deadzone=21,11 / fast_pskip=0 / chroma_qp_offset=-2 / threads=36 / lookahead_threads=6 / sliced_threads=0 / nr=0 / decimate=1 / interlaced=0 / bluray_compat=0 / constrained_intra=0 / bframes=3 / b_pyramid=2 / b_adapt=1 / b_bias=0 / direct=1 / weightb=1 / open_gop=0 / weightp=2 / keyint=250 / keyint_min=23 / scenecut=40 / intra_refresh=0 / rc_lookahead=40 / rc=2pass / mbtree=1 / bitrate=5199 / ratetol=1.0 / qcomp=0.60 / qpmin=0 / qpmax=69 / qpstep=4 / cplxblur=20.0 / qblur=0.5 / ip_ratio=1.40 / aq=1:1.00
Язык : English
Default : Да
Forced : Да

Аудио #1
Идентификатор : 2
Формат : AC-3
Формат/Информация : Audio Coding 3
Расширение режима : CM (complete main)
Идентификатор кодека : A_AC3
Продолжительность : 1 ч. 56 м.
Вид битрейта : Постоянный
Битрейт : 448 Кбит/сек
Каналы : 6 каналов
Расположение каналов : Front: L C R, Side: L R, LFE
Частота : 48,0 КГц
Битовая глубина : 16 бит
Метод сжатия : С потерями
Размер потока : 373 Мбайт (6%)
Заголовок : DD 5.1 @ 448 kbps - Dub, R5
Язык : Russian
Default : Да
Forced : Да

Аудио #2
Идентификатор : 3
Формат : DTS
Формат/Информация : Digital Theater Systems
Профиль формата : ES
Идентификатор кодека : A_DTS
Продолжительность : 1 ч. 56 м.
Вид битрейта : Постоянный
Битрейт : 1510 Кбит/сек
Каналы : 6 каналов
Расположение каналов : Front: L C R, Side: L R, LFE
Частота : 48,0 КГц
Битовая глубина : 24 бит
Метод сжатия : С потерями
Размер потока : 1,23 Гбайт (21%)
Заголовок : DTS 5.1 @ 1536 kbps
Язык : English
Default : Нет
Forced : Нет

Текст
Идентификатор : 4
Формат : UTF-8
Идентификатор кодека : S_TEXT/UTF8
Идентификатор кодека/Информация : UTF-8 Plain Text
Язык : English
Default : Нет
Forced : Нет

Меню
00:00:00.000 : en:00:00:00.000
00:04:43.366 : en:00:04:43.366
00:08:35.348 : en:00:08:35.348
00:12:48.685 : en:00:12:48.685
00:17:09.028 : en:00:17:09.028
00:22:04.198 : en:00:22:04.198
00:28:15.485 : en:00:28:15.485
00:34:08.463 : en:00:34:08.463
00:38:34.771 : en:00:38:34.771
00:41:36.452 : en:00:41:36.452
00:44:13.693 : en:00:44:13.693
00:48:46.966 : en:00:48:46.966
00:52:18.510 : en:00:52:18.510
00:58:32.926 : en:00:58:32.926
01:00:36.550 : en:01:00:36.550
01:04:33.536 : en:01:04:33.536
01:07:56.864 : en:01:07:56.864
01:12:04.445 : en:01:12:04.445
01:15:16.721 : en:01:15:16.721
01:19:06.867 : en:01:19:06.867
01:23:13.405 : en:01:23:13.405
01:27:31.121 : en:01:27:31.121
01:31:22.185 : en:01:31:22.185
01:35:52.538 : en:01:35:52.538
01:39:34.135 : en:01:39:34.135
01:44:28.012 : en:01:44:28.012
01:49:12.171 : en:01:49:12.171
01:50:18.487 : en:01:50:18.487
Свернуть

"Скриншоты"
Изображение
Изображение
Изображение
Свернуть

Раздача группы:
Изображение
Не в сети
Профиль  
 Добавлено: 2013-02-18 06:32 (спустя 5 дней)
Аватара пользователя
Стаж: 9 лет
Сообщений: 167
Спасибок: 38
смотрел. фильм очень хороший
Не в сети
Профиль  
 Добавлено: 2013-03-14 21:56 (спустя 24 дня)
Стаж: 5 лет 3 месяца
Сообщений: 150
Лайков: 1
Фильм на столько хорош,что захватывает дух при просмотре!Он однозначно уйдёт в мою копилку САМЫХ любимых!Смотреть,смотреть и еще раз смотреть!Я в восторге!
Не в сети
Профиль  
Начать новую темуОтветить на тему  [ Сообщений: 3 ] 
Вы не можете начинать темы
Вы не можете отвечать на сообщения
Вы не можете редактировать свои сообщения
Вы не можете удалять свои сообщения