Правила форума

  • В этом разделе создание новых тем Запрещено.
  • Для создания новых тем пользуйтесь Корневым разделом DVD и HD фильмы.
Начать новую темуОтветить на тему  [ Сообщений: 3 ] 
Торрент файл
Размер: 12.15 GB • Зарегистрирован: 3 года 8 месяцев • Статус: Проверено
Скачан: 50 раз • Желающих скачать: 0 • Поблагодарили: 24 раза
 Раздают: 0  |  0 KB/s  ]   Качают: 0  |  0 KB/s  ] 
 Полного источника не было 1 год 7 месяцев 
Сообщения
 Добавлено: 2013-03-25 12:42
Аватара пользователя
Стаж: 9 лет 1 месяц
Сообщений: 7983
Спасибок: 122213
Лайков: 1191
Покорители волн / Chasing Mavericks

«Самые опасные волны на планете изменят их навсегда»

Изображение


Год выпуска: 2012
Страна: Изображение США
Жанр: драма, спорт
Продолжительность: 01:56:30
Субтитры: Русские, английские
Перевод: Профессиональный (полное дублирование) [Лицензия]


Режиссёр: Майкл Эптед, Кёртис Хэнсон
Сценарист: Карио Салем, Джим Минаган, Брэндон Хупер
Продюсер: Кёртис Хэнсон, Брэндон Хупер, Джим Минаган
Оператор: Оливер Эуклид, Билл Поуп
Композитор: Чад Фишер

В ролях: Джерард Батлер, Ливэн Рамбин, Элизабет Шу, Эбигейл Спенсер, Скотт Иствуд, Тейлор Хэндли, Джонни Уэстон, Александр Канеллакос, Дженика Бергер, Чэннон Роу, Купер Тимберлайн, Харли Грэхэм, Стивен Уиг, Кигэн Боос, Девин Криттенден, Энди Арнесс, Ричард Гросс, Сэмми Эллиотт, Мэттью Бингхэм, Майя Рэйнс, Джеймс Энтони Коттон, Дианна Маркс

Описание: Серфинг — спорт королей. Не каждый сможет справиться с огромными волнами у побережья Калифорнии. Их называют Мавериками, они достигают 25 метров в высоту. Хессон не раз покорял стихию, но не раскрыл своего секрета никому. Он дал обещание любимой женщине — больше не рисковать жизнью. Но смелость юного Джея подкупила Хессона. Смогут ли они, глядя смерти в лицо, удержаться на гребне волны?

Изображение Изображение

Релиз: Изображение Раздача группы: Изображение

Качество: BDRip (1080p)
Формат: Matroska
Видео: MPEG-4 AVC, 12.8 Мбит/с, 1920 x 1040
Аудио №1: Русский (AC3, 48,0 КГц, 6 ch, 448 Кбит/c)
Аудио №2: Английский (DTS, 48,0 КГц, 6 ch, 1510 Кбит/c)
Аудио №3: Английский, комментарии (AC3, 48,0 КГц, 2 ch, 224 Кбит/c)

MediaInfo
Общее
Уникальный идентификатор : 187802994733121236255944203704801063451 (0x8D498A86DAAC411F8A9AE3E72D62721B)
Полное имя : C:\Фильмы\Pokoriteli.voln.2012.BDRip.1080p.R.G.Daredevil.mkv
Формат : Matroska
Версия формата : Version 2
Размер файла : 12,2 Гбайт
Продолжительность : 1 ч. 56 м.
Общий поток : 14,9 Мбит/сек
Название фильма : -=NNM-CLUB.RU=-
Дата кодирования : UTC 2013-02-23 16:03:37
Программа кодирования : mkvmerge v2.9.9 ('Tutu') built on Nov 25 2009 21:13:32
Библиотека кодирования : libebml v0.7.9 + libmatroska v0.8.1

Видео
Идентификатор : 1
Формат : AVC
Формат/Информация : Advanced Video Codec
Профиль формата : High@L4.1
Параметр CABAC формата : Да
Параметр ReFrames формата : 4 кадра
Идентификатор кодека : V_MPEG4/ISO/AVC
Продолжительность : 1 ч. 56 м.
Битрейт : 12,8 Мбит/сек
Ширина : 1920 пикселей
Высота : 1040 пикселей
Соотношение сторон : 1,85:1
Режим частоты кадров : Постоянный
Частота кадров : 23,976 кадра/сек
Цветовое пространство : YUV
Субдискретизация насыщенности : 4:2:0
Битовая глубина : 8 бит
Тип развёртки : Прогрессивная
Бит/(Пиксели*Кадры) : 0.266
Размер потока : 10,1 Гбайт (83%)
Заголовок : Pokoriteli.voln.2012.BDRip.1080p.NNM-CLUB.GIU
Библиотека кодирования : x264 core 116 r2074 2641b9e
Настройки программы : cabac=1 / ref=4 / deblock=1:-3:-3 / analyse=0x3:0x113 / me=umh / subme=11 / psy=1 / psy_rd=1.00:0.25 / mixed_ref=1 / me_range=48 / chroma_me=1 / trellis=2 / 8x8dct=1 / cqm=0 / deadzone=21,11 / fast_pskip=1 / chroma_qp_offset=-4 / threads=12 / sliced_threads=0 / nr=0 / decimate=1 / interlaced=0 / bluray_compat=0 / constrained_intra=0 / bframes=8 / b_pyramid=2 / b_adapt=2 / b_bias=0 / direct=3 / weightb=1 / open_gop=0 / weightp=2 / keyint=250 / keyint_min=23 / scenecut=40 / intra_refresh=0 / rc_lookahead=40 / rc=2pass / mbtree=1 / bitrate=12756 / ratetol=1.0 / qcomp=0.70 / qpmin=10 / qpmax=51 / qpstep=4 / cplxblur=20.0 / qblur=0.5 / ip_ratio=1.40 / aq=1:1.00
Язык : English
Default : Нет
Forced : Нет

Аудио #1
Идентификатор : 2
Формат : AC-3
Формат/Информация : Audio Coding 3
Расширение режима : CM (complete main)
Параметр Endianness формата : Big
Идентификатор кодека : A_AC3
Продолжительность : 1 ч. 56 м.
Вид битрейта : Постоянный
Битрейт : 448 Кбит/сек
Каналы : 6 каналов
Расположение каналов : Front: L C R, Side: L R, LFE
Частота : 48,0 КГц
Битовая глубина : 16 бит
Метод сжатия : С потерями
Размер потока : 373 Мбайт (3%)
Заголовок : AC3.448.Kbps (6ch) Russian
Язык : Russian
Default : Да
Forced : Нет

Аудио #2
Идентификатор : 3
Формат : DTS
Формат/Информация : Digital Theater Systems
Профиль формата : ES
Режим : 16
Параметр Endianness формата : Big
Идентификатор кодека : A_DTS
Продолжительность : 1 ч. 56 м.
Вид битрейта : Постоянный
Битрейт : 1509 Кбит/сек
Каналы : 6 каналов
Расположение каналов : Front: L C R, Side: L R, LFE
Частота : 48,0 КГц
Битовая глубина : 24 бит
Метод сжатия : С потерями
Размер потока : 1,23 Гбайт (10%)
Заголовок : DTS.1510.Kbps (6ch) English
Язык : English
Default : Нет
Forced : Нет

Аудио #3
Идентификатор : 4
Формат : AC-3
Формат/Информация : Audio Coding 3
Расширение режима : CM (complete main)
Параметр Endianness формата : Big
Идентификатор кодека : A_AC3
Продолжительность : 1 ч. 56 м.
Вид битрейта : Постоянный
Битрейт : 224 Кбит/сек
Каналы : 2 канала
Расположение каналов : Front: L R
Частота : 48,0 КГц
Битовая глубина : 16 бит
Метод сжатия : С потерями
Размер потока : 187 Мбайт (1%)
Заголовок : AC3.224.Kbps (2ch) English.Commentary
Язык : English
Default : Нет
Forced : Нет

Текст #1
Идентификатор : 5
Формат : UTF-8
Идентификатор кодека : S_TEXT/UTF8
Идентификатор кодека/Информация : UTF-8 Plain Text
Заголовок : Russian (Full)
Default : Нет
Forced : Нет

Текст #2
Идентификатор : 6
Формат : UTF-8
Идентификатор кодека : S_TEXT/UTF8
Идентификатор кодека/Информация : UTF-8 Plain Text
Заголовок : English (Full)
Язык : English
Default : Нет
Forced : Нет

Меню
00:00:00.000 : en:Chapter 00
00:04:43.366 : en:Chapter 01
00:08:35.348 : en:Chapter 02
00:12:48.684 : en:Chapter 03
00:17:09.028 : en:Chapter 04
00:22:04.197 : en:Chapter 05
00:28:15.485 : en:Chapter 06
00:34:08.463 : en:Chapter 07
00:38:34.770 : en:Chapter 08
00:41:36.452 : en:Chapter 09
00:44:13.692 : en:Chapter 10
00:48:46.965 : en:Chapter 11
00:52:18.510 : en:Chapter 12
00:58:32.926 : en:Chapter 13
01:00:36.549 : en:Chapter 14
01:04:33.536 : en:Chapter 15
01:07:56.864 : en:Chapter 16
01:12:04.445 : en:Chapter 17
01:15:16.720 : en:Chapter 18
01:19:06.867 : en:Chapter 19
01:23:13.405 : en:Chapter 20
01:27:31.120 : en:Chapter 21
01:31:22.185 : en:Chapter 22
01:35:52.538 : en:Chapter 23
01:39:34.134 : en:Chapter 24
01:44:28.011 : en:Chapter 25
01:49:12.170 : en:Chapter 26
01:50:18.486 : en:Chapter 27
Свернуть
Знаете ли вы, что...
Майкл Эптид занимался режиссурой последние три недели основных съемок в связи с тем, что у Кёртиса Хэнсона были проблемы со здоровьем.

Был проведен международный онлайн-кастинг, чтобы найти актера на роль Джея Мориарти.

Шесть камер Red Epic были утеряны во время съемок серфинга на волнах Мавериках.

Когда Джей работает в Pleasure Pizza, на фоне играет песня Brimful of Asha группы Cornershop. Эта часть фильма происходит в 1994-м, но песня была выпущена только в 1997 году.

В сцене, где рано утром серфер выходит на утес на берегу, солнце встает с левой стороны. Даже на самой южной стороне пляжа в Калифорнии солнце вставало бы из-за его спины.

Свернуть
Скриншоты
Изображение
Изображение
Изображение
Изображение
Свернуть
Не в сети
Профиль  
 Добавлено: 2013-03-25 17:15 (спустя 4 часа)
Стаж: 5 лет 3 месяца
Сообщений: 151
Лайков: 2
Наикрутейший фильм!!!
Не в сети
Профиль  
 Добавлено: 2013-04-07 19:07 (спустя 13 дней)
Аватара пользователя
Стаж: 7 лет
Возраст: 30
Сообщений: 507
Спасибок: 1931
Всем рекомендую. После просмотра так их хотелось скорее взять доску и бежать покорять волны!
_________________
Изображение
Не в сети
Профиль  
Начать новую темуОтветить на тему  [ Сообщений: 3 ] 
Вы не можете начинать темы
Вы не можете отвечать на сообщения
Вы не можете редактировать свои сообщения
Вы не можете удалять свои сообщения