Правила форума

  • В этом разделе создание новых тем Запрещено.
  • Для создания новых тем пользуйтесь Корневым разделом DVD и HD фильмы.
Начать новую темуОтветить на тему  [ Сообщений: 3 ] 
Торрент файл
Размер: 9.15 GB • Зарегистрирован: 5 лет 5 месяцев • Статус: Проверено
Скачан: 334 раза • Желающих скачать: 0 • Поблагодарили: 43 раза
 Раздают: 0  |  0 KB/s  ]   Качают: 0  |  0 KB/s  ] 
 Полного источника не было 18 дней 
Сообщения
 Добавлено: 2011-06-20 17:21
Top-releaser
Аватара пользователя
Стаж: 8 лет 9 месяцев
Сообщений: 479
Спасибок: 20190
Лайков: 16
Изображение

Paul

Изображение


Год выпуска: 2011
Страна: Изображение США, Изображение Великобритания; Universal Pictures, Relativity Media, Working Title Films
Слоган: «Кто готов к тесному контакту?»
Жанр: Фантастика, комедия, приключения
Продолжительность: 01:43:40
Перевод: Профессиональный (дублированный) [Лицензия], Оригинал
Субтитры: русские (forced), английские

Режиссёр: Грег Моттола / Greg Mottola

В ролях: Саймон Пегг (Graeme Willy), Ник Фрост (Clive Gollings), Джереми Оуэн (Sword Vendor), Джефри Тэмбор (Adam Shadowchild), Дэвид Хаус (Security Guard), Дженнифер Грэйнджер (Adam Shadowchild Fan), Нельсон Асценсио (Jorge), Бобби Ли (Valet), Джейн Линч (Pat Stevens)

Дублёры: Павел Воля (Paul), Сергей Бурунов (Graeme Willy), Михаил Белякович (Clive Gollings), Владимир Герасимов (Adam Shadowchild), Инна Королёва (Pat Stevens), Михаил Георгиу (Gus), Иван Жарков (Jake), Алексей Мясников (Agent Zoil), Ольга Зубкова (The Big Guy), Александр Коврижных (Haggard), Диомид Виноградов (O'Reilly), Екатерина Щанкина (Ruth Buggs)

Описание: Два английских гика отправляются на одно из самых значимых фанатских событий в области фантастики — конвент ComicCon в Америке. По пути, неподалёку от известной Зоны 51, они встречают сбежавшего инопланетянина по имени Пол, который просит помочь ему добраться домой. Пытаясь спастись от правительственных агентов, герои случайно похищают женщину и натыкаются на обкуренную свидетельницу аварийной посадки Пола на Землю.

Качество: BDRip 1080p R5
Формат: MKV

Видео: MPEG4 Video (H264) 1920x816 23.98fps
Аудио 1: Dolby AC3 48000Hz 6ch (Дубляж)
Аудио 2: DTS 48000Hz 6ch (Оригинал)
Изображение

BDInfo

Общее
Уникальный идентификатор : 220304072167254135886912973914570945069 (0xA5BD055CB323B0F7956D3110FBAAF22D)
Полное имя : C:\Users\Домашний\Desktop\Pol.Sekretnij.materialchik.2011.x264.(1080p)[nntt].mkv
Формат : Matroska
Размер файла : 9,15 Гбайт
Продолжительность : 1 ч. 43 м.
Общий поток : 12,6 Мбит/сек
Название фильма : Pol Sekretnij materialchik
Дата кодирования : UTC 2011-06-20 08:46:02
Программа кодирования : mkvmerge v4.5.0 ('Speed of Light') сборка от Feb 1 2011 02:10:32
Библиотека кодирования : libebml v1.2.0 + libmatroska v1.1.0

Видео
Идентификатор : 1
Формат : AVC
Формат/Информация : Advanced Video Codec
Профиль формата : High@L5.0
Параметр CABAC формата : Да
Параметр ReFrames формата : 8 кадры
Режим смешивания : Header stripping
Идентификатор кодека : V_MPEG4/ISO/AVC
Продолжительность : 1 ч. 43 м.
Битрейт : 10,7 Мбит/сек
Ширина : 1920 пикс.
Высота : 816 пикс.
Соотношение сторон : 2,35:1
Частота кадров : 23,976 кадр/сек
Цветовое пространство : YUV
Подвыборка цветности : 4:2:0
Битовая глубина : 8 бит
Тип развёртки : Прогрессивная
Бит/(Пиксели*Кадры) : 0.286
Размер потока : 7,59 Гбайт (83%)
Заголовок : Pol Sekretnij materialchik
Библиотека кодирования : x264 core 92 r1510 33d382a
Настройки программы : cabac=1 / ref=8 / deblock=1:-1:-1 / analyse=0x3:0x133 / me=umh / subme=7 / psy=1 / psy_rd=1.00:0.10 / mixed_ref=1 / me_range=16 / chroma_me=1 / trellis=2 / 8x8dct=1 / cqm=0 / deadzone=21,11 / fast_pskip=0 / chroma_qp_offset=-3 / threads=6 / sliced_threads=0 / nr=0 / decimate=1 / interlaced=0 / constrained_intra=0 / bframes=3 / b_pyramid=2 / b_adapt=2 / b_bias=0 / direct=3 / wpredb=1 / wpredp=2 / keyint=250 / keyint_min=25 / scenecut=40 / intra_refresh=0 / rc_lookahead=50 / rc=2pass / mbtree=1 / bitrate=10737 / ratetol=1.0 / qcomp=0.60 / qpmin=10 / qpmax=51 / qpstep=4 / cplxblur=20.0 / qblur=0.5 / ip_ratio=1.40 / aq=1:1.00
Язык : English

Аудио #1
Идентификатор : 2
Формат : AC-3
Формат/Информация : Audio Coding 3
Расширение режима : CM (complete main)
Режим смешивания : Header stripping
Идентификатор кодека : A_AC3
Продолжительность : 1 ч. 43 м.
Вид битрейта : Постоянный
Битрейт : 384 Кбит/сек
Канал(ы) : 6 канала(ов)
Расположение каналов : Front: L C R, Side: L R, LFE
Частота : 48,0 КГц
Битовая глубина : 16 бит
Метод сжатия : С потерями
Размер потока : 285 Мбайт (3%)
Заголовок : AC3
Язык : Russian

Аудио #2
Идентификатор : 3
Формат : DTS
Формат/Информация : Digital Theater Systems
Режим смешивания : Header stripping
Идентификатор кодека : A_DTS
Продолжительность : 1 ч. 43 м.
Вид битрейта : Постоянный
Битрейт : 1510 Кбит/сек
Канал(ы) : 6 канала(ов)
Расположение каналов : Front: L C R, Side: L R, LFE
Частота : 48,0 КГц
Битовая глубина : 24 бит
Метод сжатия : С потерями
Размер потока : 1,09 Гбайт (12%)
Заголовок : DTS
Язык : English

Текст #1
Идентификатор : 4
Формат : UTF-8
Идентификатор кодека : S_TEXT/UTF8
Идентификатор кодека/Информация : UTF-8 Plain Text
Язык : Russian

Текст #2
Идентификатор : 5
Формат : UTF-8
Идентификатор кодека : S_TEXT/UTF8
Идентификатор кодека/Информация : UTF-8 Plain Text
Язык : English

Текст #3
Идентификатор : 6
Формат : UTF-8
Идентификатор кодека : S_TEXT/UTF8
Идентификатор кодека/Информация : UTF-8 Plain Text
Язык : English
Свернуть
Скриншоты

Изображение
Изображение
Изображение
Изображение
Изображение
Свернуть
_________________
Изображение
Изображение
Не в сети
Профиль  
 Добавлено: 2011-06-21 21:26 (спустя 1 день 4 часа)
Аватара пользователя
Стаж: 7 лет
Сообщений: 56
Спасибок: 237
Перевод: Профессиональный (дублированный) [Лицензия], Оригинал
Очень не правильный перевод с английского.
В целом фильм простосюжетный, но не занудный.
На один раз. :par_don:
Не в сети
Профиль  
 Добавлено: 2012-11-05 22:42 (спустя 1 год 4 месяца)
Аватара пользователя
Стаж: 8 лет 3 месяца
Сообщений: 30
Спасибок: 34
на 46% встало, два сида
Не в сети
Профиль  
Начать новую темуОтветить на тему  [ Сообщений: 3 ] 
Вы не можете начинать темы
Вы не можете отвечать на сообщения
Вы не можете редактировать свои сообщения
Вы не можете удалять свои сообщения