Правила форума

  • В этом разделе создание новых тем Запрещено.
  • Для создания новых тем пользуйтесь Корневым разделом DVD и HD фильмы.
Начать новую темуОтветить на тему  [ Сообщений: 6 ] 
Торрент файл
Размер: 3.08 GB • Зарегистрирован: 2 года 9 месяцев • Статус: T Временный релиз
Скачан: 124 раза • Желающих скачать: 0 • Поблагодарили: 44 раза
 Раздают: 0  |  0 KB/s  ]   Качают: 0  |  0 KB/s  ] 
 Полного источника не было 12 дней 
Сообщения
 Добавлено: 2014-02-13 15:12
Модератор
Аватара пользователя
Стаж: 8 лет 2 месяца
Возраст: 30
Сообщений: 3201
Спасибок: 2960
Лайков: 206
Полицейская история 2014/Jing cha gu shi 2013

Изображение

Название: Полицейская история 2014
Оригинальное название: Jing cha gu shi 2013
Год выпуска: 2013
Жанр: Kриминал, драма, триллер, боевик
Выпущено: Китай, Гонконг, China Vision Group, Wanda Media Co.
Режиссер: Дин Шэн
В ролях: Джеки Чан, Лю Е, Тянь Цзин, Вэй На, Юй Жун Гуан, Александр Байли, Макс Хуан, Лью Пэйци, Ивэй Лау, Джеймс Лоджа
О фильме: История начинается с того, что посетители паба оказываются взятыми в заложники. Среди посетителей есть офицер полиции Вэнь Чжун и его непослушная дочь Мяомяо. Человек, удерживающий всех в заложниках — владелец паба, который таким образом пытается добиться освобождения из тюрьмы одного преступника…
Мировая премьера: 24 декабря 2013
Премьера в России: 20 марта 2014, «Каравелла DDC»
Качество: HDTV 1080p
Видео: MPEG-4 AVC, ~ 3683 Кбит/с, 1920x1080
Аудио: Русский, китайский (AC3, 2 ch, 192 Кбит/с)
Продолжительность: 01:46:32
Озвучивание: Любительское (двухголосое) (GREEN TEA)
Субтитры: английские + китайские (хардсаб)

Изображение
MediaInfo
General
Unique ID : 229191006154268564562482898696812344495 (0xAC6C9509557C9B5C9FE8FECDF407B4AF)
Format : Matroska
Format version : Version 4 / Version 2
File size : 3.08 GiB
Duration : 1h 46mn
Overall bit rate : 4 149 Kbps
Encoded date : UTC 2014-02-12 18:00:59
Writing application : mkvmerge v6.7.0 ('Back to the Ground') 64bit built on Jan 8 2014 15:10:52
Writing library : libebml v1.3.0 + libmatroska v1.4.1
Video #1
ID : 1
Format : AVC
Format/Info : Advanced Video Codec
Format profile : Main@L4.0
Format settings, CABAC : Yes
Format settings, ReFrames : 2 frames
Codec ID : V_MPEG4/ISO/AVC
Duration : 1h 46mn
Bit rate : 3 683 Kbps
Width : 1 920 pixels
Height : 1 080 pixels
Display aspect ratio : 16:9
Frame rate mode : Constant
Frame rate : 25.000 fps
Color space : YUV
Chroma subsampling : 4:2:0
Bit depth : 8 bits
Scan type : Progressive
Bits/(Pixel*Frame) : 0.071
Stream size : 2.74 GiB (89%)
Writing library : avc encoder v1.9
Default : Yes
Forced : No
Audio #2
ID : 2
Format : AC-3
Format/Info : Audio Coding 3
Mode extension : CM (complete main)
Format settings, Endianness : Big
Codec ID : A_AC3
Duration : 1h 46mn
Bit rate mode : Constant
Bit rate : 192 Kbps
Channel(s) : 2 channels
Channel positions : Front: L R
Sampling rate : 48.0 KHz
Bit depth : 16 bits
Compression mode : Lossy
Stream size : 146 MiB (5%)
Language : Russian
Default : Yes
Forced : No
Audio #3
ID : 3
Format : AC-3
Format/Info : Audio Coding 3
Mode extension : CM (complete main)
Format settings, Endianness : Big
Codec ID : A_AC3
Duration : 1h 46mn
Bit rate mode : Constant
Bit rate : 192 Kbps
Channel(s) : 2 channels
Channel positions : Front: L R
Sampling rate : 44.1 KHz
Bit depth : 16 bits
Compression mode : Lossy
Stream size : 146 MiB (5%)
Default : No
Forced : No
Свернуть
Скриншоты
Изображение
Изображение
Изображение
Изображение
Изображение
Изображение
Свернуть

Изображение
_________________

ИзображениеПравила Создание релизов от А до Я
 R.G. Механики нравится это.
Не в сети
Профиль  
 Добавлено: 2014-02-13 18:44 (спустя 3 часа)
Стаж: 5 лет
Сообщений: 6
Спасибо!!! :bra_vo: :bra_vo: :bra_vo: :bra_vo:
Не в сети
Профиль  
 Добавлено: 2014-02-14 07:13 (спустя 12 часов)
Техподдержка со знаниями
Аватара пользователя
Стаж: 8 лет 5 месяцев
Сообщений: 3327
Спасибок: 150
Лайков: 37
Релизеру спасибо, но фильм совсем не понравился. Джеки здесь не выступает в качестве режиссёра и это чувствуется. А оператору я посылаю отдельный луч ненависти, так трясти камеру надо постараться - в динамичных сценах у меня чуть глаза не вытекли.
Обычно все фильмы с Чаном попадают в коллекцию "всегда можно пересмотреть", но этот я в сердцах снёс сразу после просмотра, да простят меня качающие.
Не в сети
Профиль  
 Добавлено: 2014-05-03 11:14 (спустя 2 месяца 17 дней)
Аватара пользователя
Стаж: 8 лет
Сообщений: 1390
Спасибок: 39
Лайков: 64
ништяк...2014 по китайски 2013 :co_ol: :-D
Не в сети
Профиль  
 Добавлено: 2014-05-05 14:24 (спустя 2 дня 3 часа)
Аватара пользователя
Стаж: 9 лет
Возраст: 33
Сообщений: 26
Нет, наоборот: 2013 - по Русски 2014 )))))))))))) :-D :-D :-D ;;-))) :co_ol:
Не в сети
Профиль  
 Добавлено: 2014-05-08 18:06 (спустя 3 дня)
Аватара пользователя
Стаж: 8 лет 2 месяца
Возраст: 30
Сообщений: 21
Спасибок: 131
одно название всколыхнуло такую бурю эмоций!!!!
Не в сети
Профиль  
Начать новую темуОтветить на тему  [ Сообщений: 6 ] 
Вы не можете начинать темы
Вы не можете отвечать на сообщения
Вы не можете редактировать свои сообщения
Вы не можете удалять свои сообщения