Правила форума

  • В этом разделе создание новых тем Запрещено.
  • Для создания новых тем пользуйтесь Корневым разделом DVD и HD фильмы.
Начать новую темуОтветить на тему  [ 1 сообщение ] 
Торрент файл
Размер: 13.39 GB • Зарегистрирован: 4 года 7 месяцев • Статус: Проверено
Скачан: 14 раз • Желающих скачать: 0 • Поблагодарили: 4 раза
 Раздают: 0  |  0 KB/s  ]   Качают: 0  |  0 KB/s  ] 
 Полного источника не было 2 года 2 месяца 
Сообщения
 Добавлено: 2012-05-24 11:38
Аватара пользователя
Стаж: 8 лет 9 месяцев
Сообщений: 59
Спасибок: 336
Полиция Майами: Отдел нравов / Miami Vice

Изображение


Год выпуска: 2006
Страна: Германия, США
Жанр: боевик, триллер, драма, криминал
Продолжительность: 02:19:12
Перевод: Профессиональный (дубляж)
Субтитры: Английские

Режиссёр: Майкл Манн
Сценарист: Майкл Манн, Энтони Еркович
Оператор: Дион Биби
Композитор: Джон Мерфи
В ролях: Колин Фаррелл, Джэми Фокс, Ли Гон, Наоми Харрис, Киаран Хиндс, Джастин Теру, Бэрри Шебака Хенли, Луис Тосар, Джон Ортиз, Элизабет Родригез
Описание: Детективы Сонни Крокет и Рикардо Таббс полны решимости остановить торговцев наркотиками, наводняющих Майами этим смертельным зельем. Они работают «под прикрытием», внедряясь в мафиозные структуры с целью их уничтожить. Но однажды Джеймс Крокет влюбляется… в девушку мафиозного босса.
Рейтинг MPAA: Рейтинг R (Подростки до 17 лет допускаются на фильм только в сопровождении одного из родителей)
Мировая премьера: 20 июля 2006
Премьера в России: 3 августа 2006
Бюджет: $135 000 000
Кассовые сборы: $163 790 184
Изображение Изображение

Качество: BDRip 1080p
Формат: MKV
Видео кодек: H.264
Аудио кодек: DTS
Видео: H.264, 1920x800, 23.976fps, 10.5mbps
Аудио #1:Русский DTS 5.1 @ 768kbps (дубляж)
Аудио #2: Русский DD 5.1 @ 448kbps (Гланц)
Аудио #3: Английский DTS 5.1 @ 1536kbps [Профессиональный (дубляж)]
Субтитры: Английские

Скриншоты
Изображение
Изображение
Изображение
Свернуть


"MI"
Format : Matroska
Format version : Version 1
File size : 13.4 GiB
Duration : 2h 19mn
Overall bit rate : 13.8 Mbps
Encoded date : UTC 2008-09-06 14:22:45
Writing application : mkvmerge v2.2.0 ('Turn It On Again') built on Aug 21 2008 12:46:46
Writing library : libebml v0.7.7 + libmatroska v0.8.1

Video
ID : 1
Format : AVC
Format/Info : Advanced Video Codec
Format profile : High@L5.0
Format settings, CABAC : Yes
Format settings, ReFrames : 6 frames
Codec ID : V_MPEG4/ISO/AVC
Duration : 2h 19mn
Bit rate : 11.1 Mbps
Width : 1 920 pixels
Height : 800 pixels
Display aspect ratio : 2.40:1
Frame rate : 23.976 fps
Color space : YUV
Chroma subsampling : 4:2:0
Bit depth : 8 bits
Scan type : Progressive
Bits/(Pixel*Frame) : 0.300
Stream size : 10.5 GiB (78%)
Writing library : x264 core 61 r957M 7ce0f2c
Encoding settings : cabac=1 / ref=6 / deblock=1:-3:-3 / analyse=0x3:0x133 / me=umh / subme=7 / psy_rd=1.2:0.0 / brdo=1 / mixed_ref=1 / me_range=32 / chroma_me=1 / trellis=0 / 8x8dct=1 / cqm=2 / deadzone=6,6 / chroma_qp_offset=-2 / threads=6 / nr=0 / decimate=1 / mbaff=0 / bframes=16 / b_pyramid=1 / b_adapt=1 / b_bias=0 / direct=1 / wpredb=1 / bime=1 / keyint=250 / keyint_min=25 / scenecut=40(pre) / rc=2pass / bitrate=11055 / ratetol=1.0 / qcomp=1.00 / qpmin=10 / qpmax=51 / qpstep=4 / cplxblur=20.0 / qblur=0.5 / ip_ratio=1.40 / pb_ratio=1.30 / aq=2:0.80
Language : English

Audio #1
ID : 2
Format : DTS
Format/Info : Digital Theater Systems
Codec ID : A_DTS
Duration : 2h 19mn
Bit rate mode : Constant
Bit rate : 755 Kbps
Channel(s) : 6 channels
Channel positions : Front: L C R, Side: L R, LFE
Sampling rate : 48.0 KHz
Bit depth : 24 bits
Compression mode : Lossy
Stream size : 751 MiB (5%)
Title : DTS 5.1 @ 768kbps (dub+vo)
Language : Russian

Audio #2
ID : 3
Format : AC-3
Format/Info : Audio Coding 3
Mode extension : CM (complete main)
Codec ID : A_AC3
Duration : 2h 19mn
Bit rate mode : Constant
Bit rate : 448 Kbps
Channel(s) : 6 channels
Channel positions : Front: L C R, Side: L R, LFE
Sampling rate : 48.0 KHz
Bit depth : 16 bits
Compression mode : Lossy
Stream size : 446 MiB (3%)
Title : DD 5.1 @ 448kbps (Glanz)
Language : Russian

Audio #3
ID : 4
Format : DTS
Format/Info : Digital Theater Systems
Codec ID : A_DTS
Duration : 2h 19mn
Bit rate mode : Constant
Bit rate : 1 510 Kbps
Channel(s) : 6 channels
Channel positions : Front: L C R, Side: L R, LFE
Sampling rate : 48.0 KHz
Bit depth : 24 bits
Compression mode : Lossy
Stream size : 1.47 GiB (11%)
Title : DTS 5.1 @ 1536kbps
Language : English

Text
ID : 5
Format : UTF-8
Codec ID : S_TEXT/UTF8
Codec ID/Info : UTF-8 Plain Text
Language : English

Свернуть


Тема поднималась пользователем uzu 2012-05-24 11:38.
Не в сети
Профиль  
Начать новую темуОтветить на тему  [ 1 сообщение ] 
Вы не можете начинать темы
Вы не можете отвечать на сообщения
Вы не можете редактировать свои сообщения
Вы не можете удалять свои сообщения