Правила форума

  • В этом разделе создание новых тем Запрещено.
  • Для создания новых тем пользуйтесь Корневым разделом DVD и HD фильмы.
Начать новую темуОтветить на тему  [ Сообщений: 6 ] 
Торрент файл
Размер: 5.5 GB • Зарегистрирован: 3 года 7 месяцев • Статус: Проверено
Скачан: 62 раза • Желающих скачать: 0 • Поблагодарили: 12 раз
 Раздают: 0  |  0 KB/s  ]   Качают: 0  |  0 KB/s  ] 
 Полного источника не было 2 года 10 месяцев 
Сообщения
 Добавлено: 2013-05-09 02:19
Аватара пользователя
Стаж: 9 лет 1 месяц
Сообщений: 1274
Спасибок: 2449
Лайков: 1
Полный беспредел / Autoreiji: Biyondo / Outrage Beyond


Изображение

Год выхода: 2012
Страна: Япония
Жанр: Боевик, Криминал
Продолжительность: 01:52:28
Перевод: Отсутствует (Оригинальная звуковая дорожка)
Субтитры: Русские (ext srt Артём Прожога)

Режиссер: Такеши Китано / Takeshi Kitano

В ролях:
Такеши Китано (Takeshi Kitano) ... Ohtomo
Рё Касэ (Ryo Kase) ... Ishihara
Тосиюки Нисида (Toshiyuki Nishida) ... Nishino
Сюн Сугата (Shun Sugata) ... Okamoto
Мачико Оно (Machiko Ono) ... ?
Сигэру Кояма (Shigeru Koyama) ... Fuse
Томокадзу Миура (Tomokazu Miura) ... Kato
Кен Мицуйси (Ken Mitsuishi) ... Gomi
Фумиё Кохината (Fumiyo Kohinata) ... Det. Kataoka
Кента Киритани (Kenta Kiritani) ... Shima
Хирофуми Арай (Hirofumi Arai) ... Ono
Ютака Мацусигэ (Yutaka Matsushige) ... Shigeta
Акира Накао (Akira Nakao) ... Tomita
Сансей Шиоми (Sansei Shiomi) ... Nakata
Хидео Накано (Hideo Nakano) ... Kimura
... и другие.


Описание:
 Криминальная семья Санно выросла в огромную организацию, чья власть распространилась на политику и крупный легальный бизнес. Амбициозный детектив Катаока при помощи тайных заговоров и грязных трюков провоцирует конфликт Между Санно и их давними врагами Ханабиши, надеясь, что они окончательно уничтожат друг друга.

 Но козырем в руках Катаоки может стать тот факт, что из тюрьмы готовится выйти Отомо, босс семьи, когда-то раздавленной Санно, которого многие считали мертвым. Неожиданное возвращение Отомо сеет еще больше лжи и предательства между семьям. Невозможно угадать, кто одержит верх в этой свирепой схватке за власть.

Изображение

Изображение


Качество: BDRip 720p by CHD
Формат: MKV
Видеокодек: x264
Аудиокодек: DTS
Видео: x264 L4.1 High@ 1280x532 5502Kbps 23.976 fps
Аудио: DTS 48000Hz 6ch 1510Kbps | JPN

"MediaInfo"
General
Unique ID                                : 242535289130509229726017805937368122471 (0xB67698FBB45C4CAE8E8E9DC3E3704467)
Complete name                            : ..\Autoreiji_Biyondo.2012(Kitano Takeshi)[720p_x264_DTS]BDRip.CHD.mkv
Format                                   : Matroska
Format version                           : Version 4 / Version 2
File size                                : 5.50 GiB
Duration                                 : 1h 52mn
Overall bit rate                         : 7 005 Kbps
Movie name                               : Outrage.Beyond.2012.BluRay.720p.DTS.x264-CHD
Encoded date                             : UTC 2013-04-17 20:23:20
Writing application                      : mkvmerge v6.0.0 ('Coming Up For Air') built on Jan 20 2013 09:52:00
Writing library                          : libebml v1.3.0 + libmatroska v1.4.0

Video
ID                                       : 1
Format                                   : AVC
Format/Info                              : Advanced Video Codec
Format profile                           : High@L4.1
Format settings, CABAC                   : Yes
Format settings, ReFrames                : 12 frames
Codec ID                                 : V_MPEG4/ISO/AVC
Duration                                 : 1h 52mn
Bit rate                                 : 5 502 Kbps
Width                                    : 1 280 pixels
Height                                   : 532 pixels
Display aspect ratio                     : 2.40:1
Frame rate                               : 23.976 fps
Color space                              : YUV
Chroma subsampling                       : 4:2:0
Bit depth                                : 8 bits
Scan type                                : Progressive
Bits/(Pixel*Frame)                       : 0.337
Stream size                              : 4.21 GiB (76%)
Title                                    : hahay0yo@CHD
Writing library                          : x264 core 130 r2273 b3065e6
Encoding settings                        : cabac=1 / ref=12 / deblock=1:-3:-3 / analyse=0x3:0x113 / me=umh / subme=11 / psy=1 / psy_rd=1.10:0.15 / mixed_ref=1 / me_range=32 / chroma_me=1 / trellis=2 / 8x8dct=1 / cqm=0 / deadzone=21,11 / fast_pskip=0 / chroma_qp_offset=-2 / threads=12 / lookahead_threads=1 / sliced_threads=0 / nr=0 / decimate=1 / interlaced=0 / bluray_compat=0 / constrained_intra=0 / bframes=6 / b_pyramid=2 / b_adapt=2 / b_bias=0 / direct=3 / weightb=1 / open_gop=0 / weightp=2 / keyint=250 / keyint_min=23 / scenecut=40 / intra_refresh=0 / rc_lookahead=40 / rc=2pass / mbtree=0 / bitrate=5502 / ratetol=1.0 / qcomp=0.60 / qpmin=0 / qpmax=69 / qpstep=4 / cplxblur=20.0 / qblur=0.5 / vbv_maxrate=40000 / vbv_bufsize=30000 / nal_hrd=none / ip_ratio=1.40 / pb_ratio=1.30 / aq=1:0.80
Language                                 : Japanese
Default                                  : Yes
Forced                                   : No

Audio
ID                                       : 2
Format                                   : DTS
Format/Info                              : Digital Theater Systems
Codec ID                                 : A_DTS
Duration                                 : 1h 52mn
Bit rate mode                            : Constant
Bit rate                                 : 1 510 Kbps
Channel(s)                               : 6 channels
Channel positions                        : Front: L C R, Side: L R, LFE
Sampling rate                            : 48.0 KHz
Bit depth                                : 24 bits
Compression mode                         : Lossy
Stream size                              : 1.19 GiB (22%)
Title                                    : Japanese DTS 5.1 1509Kbps
Language                                 : Japanese
Default                                  : Yes
Forced                                   : No
   
Свернуть
Скрыншоты

Изображение

Изображение

Изображение

Изображение

Изображение

Свернуть
_________________
Sayonara NNTT...
Не в сети
Профиль  
 Добавлено: 2013-05-09 08:07 (спустя 5 часов)
Аватара пользователя
Стаж: 6 лет 6 месяцев
Сообщений: 19961
Спасибок: 721
Лайков: 461
Блииин... размер не свойственный.. :( Када появица такое же AVC как тут, но размером 2,18-2,55Гб... :)
_________________
It was I'am ... :jn_pu_sk:
Медали и Ордена
ИзображениеИзображение
Свернуть
Не в сети
Профиль  
 Добавлено: 2013-05-09 08:20 (спустя 12 минут)
Аватара пользователя
Стаж: 9 лет 1 месяц
Сообщений: 1274
Спасибок: 2449
Лайков: 1
есть на ~1,5Гб только он 576р.
_________________
Sayonara NNTT...
Не в сети
Профиль  
 Добавлено: 2013-05-09 15:24 (спустя 7 часов)
Аватара пользователя
Стаж: 6 лет 6 месяцев
Сообщений: 19961
Спасибок: 721
Лайков: 461

OJIU4:

есть на ~1,5Гб только он 576р.
:a_g_a: Выложи, плиииииизззззззз! :-[
_________________
It was I'am ... :jn_pu_sk:
Медали и Ордена
ИзображениеИзображение
Свернуть
Не в сети
Профиль  
 Добавлено: 2013-05-09 16:16 (спустя 51 минута)
Аватара пользователя
Стаж: 9 лет 1 месяц
Сообщений: 1274
Спасибок: 2449
Лайков: 1
*ЖОРА*
ну какбы уже выложил HQRip-AVC после того как отписал.
_________________
Sayonara NNTT...
Не в сети
Профиль  
 Добавлено: 2013-05-09 17:47 (спустя 1 час 31 минута)
Аватара пользователя
Стаж: 6 лет 6 месяцев
Сообщений: 19961
Спасибок: 721
Лайков: 461
Ой.. не заметил.. :-[ :hi_hi_hi:
_________________
It was I'am ... :jn_pu_sk:
Медали и Ордена
ИзображениеИзображение
Свернуть
Не в сети
Профиль  
Начать новую темуОтветить на тему  [ Сообщений: 6 ] 
Вы не можете начинать темы
Вы не можете отвечать на сообщения
Вы не можете редактировать свои сообщения
Вы не можете удалять свои сообщения