Правила форума

  • В этом разделе создание новых тем Запрещено.
  • Для создания новых тем пользуйтесь Корневым разделом DVD и HD фильмы.
Начать новую темуОтветить на тему  [ Сообщений: 7 ] 
Торрент файл
Размер: 10.71 GB • Зарегистрирован: 4 года 8 месяцев • Статус: Проверено
Скачан: 334 раза • Желающих скачать: 0 • Поблагодарили: 50 раз
 Раздают: 0  |  0 KB/s  ]   Качают: 0  |  0 KB/s  ] 
 Полного источника не было 1 месяц 24 дня 
Сообщения
 Добавлено: 2012-03-13 22:35
Модератор
Аватара пользователя
Стаж: 8 лет 1 месяц
Сообщений: 1991
Спасибок: 129866
Лайков: 20
Полночь в Париже / Midnight in Paris

Изображение
Год выпуска: 2011
Страна: Изображение США, Изображение Испания
Жанр: фэнтези, мелодрама, комедия
Продолжительность:
01:33:56

Перевод: Профессиональный (полное дублирование)

Режиссер: Вуди Аллен
Сценарий: Вуди Аллен
Продюсер: Летти Аронсон, Хаум Рурес, Стивен Тененбаум, Рафаэль Бенолье, Хавьер Мендез
Оператор: Джохэнн Деба, Дариус Хонджи
Композитор: Стефан Рембел

В ролях:
Оуэн Уилсон (Gil), Рэйчел МакАдамс (Inez), Марион Котийяр (Adriana), Леа Сейду (Gabrielle), Майкл Шин (Paul), Кэти Бейтс (Gertrude Stein), Курт Фуллер (John), Мими Кеннеди (Helen), Карла Бруни (Museum Guide), Кори Столл (Ernest Hemingway), Том Хиддлстон (F. Scott Fitzgerald), Элисон Пилл (Zelda Fitzgerald)
Дублёры: Пётр Иващенко (Gil) (Gil), Рамиля Искандер (Inez) (Inez), Татьяна Шитова (Adriana) (Adriana), Илья Бледный (Paul) (Paul), Ольга Кузнецова (Gertrude Stein) (Gertrude Stein), Алексей Иващенко (John) (John), Елена Соловьева (Helen) (Helen), Наталья Грачева (Museum Guide) (Museum Guide), Денис Беспалый (Ernest Hemingway) (Ernest Hemingway), Алексей Мясников (F. Scott Fitzgerald) (F. Scott Fitzgerald), Вероника Саркисова (Zelda Fitzgerald) (Zelda Fitzgerald), Валерий Сторожик (Salvador Dalí) (Salvador Dalí)

Описание: Писатель и безнадежный романтик, уверенный в том, что должен был жить в 1920-е годы, приезжает в Париж со своей возлюбленной на каникулы и попадает в прошлое. Встречаясь там с Хемингуэем, Пикассо, супругами Фицжеральдами, Гертрудой Стайн он понимает, что принадлежит этому времени и хочет остаться там навсегда.


Изображение: 8.003 (17 759)
Изображение: 7.80 (86 616)

MPAA: Изображение - Детям до 13 лет просмотр не желателен

Доп. Информация
Бюджет: $17 000 000
Сборы в США: $56 809 853
Сборы в России: $2 331 401
Сборы в мире: $148 670 437
Мировая премьера: 11 мая 2011
Релиз на DVD: 15 марта 2012, «Новый Диск»
Релиз на Blu-ray: 15 марта 2012, «Новый Диск»

Свернуть

Релиз группы: Изображение
Качество: BDRip 1080p R5

Формат: MKV
Видео: AVC; 1920x1036 (1.853); 14040 Kbps; 23,976 fps; 0,294 bpp
Аудио №1: Russian; AC3; 448 Kbps; CBR; 6 ch; 16 bit
Аудио №2: English; DTS; 1509 Kbps; CBR; 2 ch; 24 bit
Субтитры №1: Russian
Субтитры №2: French
Изображение


Знаете ли Вы, что...
  • На постере фильма Оуэн Уилсон изображен гуляющим на фоне знаменитой картины Ван Гога «Звездная ночь» (1889-90 годы).
  • Картина, которую рисует Пикассо в фильме - это «Купальщицы 4» (1928 год). В то время он уже год как был в отношениях с Марией Терезой Вальтер, которая была героиней нескольких его картин, а через пару лет родила ему дочь.
Свернуть
BDInfo
Общее

Полное имя : Polnoch'.v.Parizhe.2011.D.BDRip.1080p.ELEKTRI4KA.mkv
Формат : Matroska
Версия формата : Version 2
Размер файла : 10,7 Гбайт
Продолжительность : 1 ч. 33 м.
Общий поток : 16,3 Мбит/сек
Название фильма : Polnoch'.v.Parizhe.2011.D.BDRip.1080p.ELEKTRI4KA
Дата кодирования : UTC 2012-03-12 17:11:16
Программа кодирования : mkvmerge v5.3.0 ('I could have danced') built on Feb 9 2012 10:38:07
Библиотека кодирования : libebml v1.2.3 + libmatroska v1.3.0

Видео
Идентификатор : 1
Формат : AVC
Формат/Информация : Advanced Video Codec
Профиль формата : High@L4.1
Параметр CABAC формата : Да
Параметр ReFrames формата : 4 кадра
Идентификатор кодека : V_MPEG4/ISO/AVC
Продолжительность : 1 ч. 33 м.
Битрейт : 14,0 Мбит/сек
Ширина : 1920 пикс.
Высота : 1036 пикс.
Соотношение сторон : 1,853
Частота кадров : 23,976 кадр/сек
Цветовое пространство : YUV
Подвыборка цветности : 4:2:0
Битовая глубина : 8 бит
Тип развёртки : Прогрессивная
Бит/(Пиксели*Кадры) : 0.294
Размер потока : 9,21 Гбайт (86%)
Заголовок : Polnoch'.v.Parizhe.2011.D.BDRip.1080p.ELEKTRI4KA
Библиотека кодирования : x264 core 119 r2106 07efeb4
Настройки программы : cabac=1 / ref=4 / deblock=1:-3:-3 / analyse=0x3:0x113 / me=tesa / subme=11 / psy=1 / psy_rd=1.10:0.00 / mixed_ref=1 / me_range=16 / chroma_me=1 / trellis=2 / 8x8dct=1 / cqm=0 / deadzone=21,11 / fast_pskip=0 / chroma_qp_offset=-2 / threads=6 / sliced_threads=0 / nr=0 / decimate=0 / interlaced=0 / bluray_compat=0 / constrained_intra=0 / bframes=8 / b_pyramid=2 / b_adapt=2 / b_bias=0 / direct=3 / weightb=1 / open_gop=0 / weightp=2 / keyint=250 / keyint_min=23 / scenecut=40 / intra_refresh=0 / rc=crf / mbtree=0 / crf=17.5 / qcomp=0.50 / qpmin=0 / qpmax=69 / qpstep=4 / ip_ratio=1.40 / pb_ratio=1.30 / aq=1:0.65 / zones=7066,7170,b=1.3/21937,22517,b=1.5/22822,24120,b=1.5/24281,24376,b=1.5/24854,25147,b=1.5/25336,26213,b=1.5/26759,28089,b=1.5/32106,32420,b=1.5/32518,33200,b=1.5/33945,34331,b=1.5/45226,48670,b=1.5/105961,106511,b=1.5/127152,127445,b=1.5/129542,130280,b=1.5
Язык : English

Аудио #1
Идентификатор : 2
Формат : AC-3
Формат/Информация : Audio Coding 3
Расширение режима : CM (complete main)
Идентификатор кодека : A_AC3
Продолжительность : 1 ч. 33 м.
Вид битрейта : Постоянный
Битрейт : 448 Кбит/сек
Каналы : 6 каналов
Расположение каналов : Front: L C R, Side: L R, LFE
Частота : 48,0 КГц
Битовая глубина : 16 бит
Метод сжатия : С потерями
Задержка видео : 600 мс.
Размер потока : 301 Мбайт (3%)
Язык : Russian

Аудио #2
Идентификатор : 3
Формат : DTS
Формат/Информация : Digital Theater Systems
Идентификатор кодека : A_DTS
Продолжительность : 1 ч. 33 м.
Вид битрейта : Постоянный
Битрейт : 1510 Кбит/сек
Каналы : 2 канала
Расположение каналов : Front: L R
Частота : 48,0 КГц
Битовая глубина : 24 бит
Метод сжатия : С потерями
Размер потока : 1014 Мбайт (9%)
Заголовок : DTS 5.1 @ 1536 kbps
Язык : English

Текст #1
Идентификатор : 4
Формат : UTF-8
Идентификатор кодека : S_TEXT/UTF8
Идентификатор кодека/Информация : UTF-8 Plain Text
Заголовок : Russian
Язык : Russian

Текст #2
Идентификатор : 5
Формат : UTF-8
Идентификатор кодека : S_TEXT/UTF8
Идентификатор кодека/Информация : UTF-8 Plain Text
Заголовок : French
Язык : French

Меню
00:00:00.000 : :00:00:00.000
00:08:57.871 : :00:08:57.871
00:15:51.868 : :00:15:51.868
00:28:56.818 : :00:28:56.818
00:33:49.986 : :00:33:49.986
00:41:49.048 : :00:41:49.048
00:47:26.469 : :00:47:26.469
00:58:08.110 : :00:58:08.110
01:05:47.610 : :01:05:47.610
01:13:39.457 : :01:13:39.457
01:24:44.371 : :01:24:44.371
01:30:34.012 : :01:30:34.012
Свернуть
Скриншоты
Изображение
Изображение
Изображение
Свернуть

_________________
Себе ты можешь не качать, но раздавать другим обязан!
Не в сети
Профиль  
 Добавлено: 2012-03-30 21:30 (спустя 16 дней)
Стаж: 6 лет 10 месяцев
Сообщений: 3
:-P :)-(:
Не в сети
Профиль  
 Добавлено: 2012-05-14 07:07 (спустя 1 месяц 14 дней)
Аватара пользователя
Стаж: 7 лет 8 месяцев
Сообщений: 36
что-то фильм не очень, мутновато, автору спасибо
Не в сети
Профиль  
 Добавлено: 2012-11-16 20:11 (спустя 6 месяцев)
Аватара пользователя
Стаж: 8 лет 7 месяцев
Сообщений: 206
Спасибок: 350
Скорости!!
Фильм шедевр!
_________________
Изображение- всё знает !!
Не в сети
Профиль  
 Добавлено: 2013-03-18 21:00 (спустя 4 месяца 2 дня)
Стаж: 4 года 9 месяцев
Сообщений: 8
Пожалуйста, раздайте)
Не в сети
Профиль  
 Добавлено: 2013-08-09 12:04 (спустя 4 месяца 21 день)
Стаж: 7 лет 8 месяцев
Сообщений: 6
раздаю,скачивайте
Не в сети
Профиль  
 Добавлено: 2015-04-13 22:04 (спустя 1 год 8 месяцев)
Аватара пользователя
Стаж: 9 лет
Сообщений: 81
Спасибок: 1357
Лайков: 2
раздайте кто-нибудь
Не в сети
Профиль  
Начать новую темуОтветить на тему  [ Сообщений: 7 ] 
Вы не можете начинать темы
Вы не можете отвечать на сообщения
Вы не можете редактировать свои сообщения
Вы не можете удалять свои сообщения